  0
SECTION
  2
HEADER
  9
$ACADVER
  1
AC1014
  9
$ACADMAINTVER
 70
     0
  9
$DWGCODEPAGE
  3
ANSI_1252
  9
$INSBASE
 10
0.0
 20
0.0
 30
0.0
  9
$EXTMIN
 10
0.0
 20
506.509264
 30
0.0
  9
$EXTMAX
 10
71.531409
 20
534.771693
 30
0.0
  9
$LIMMIN
 10
0.0
 20
0.0
  9
$LIMMAX
 10
12.0
 20
9.0
  9
$ORTHOMODE
 70
     0
  9
$REGENMODE
 70
     1
  9
$FILLMODE
 70
     1
  9
$QTEXTMODE
 70
     0
  9
$MIRRTEXT
 70
     1
  9
$DRAGMODE
 70
     2
  9
$LTSCALE
 40
1.0
  9
$OSMODE
 70
     0
  9
$ATTMODE
 70
     1
  9
$TEXTSIZE
 40
0.2
  9
$TRACEWID
 40
0.05
  9
$TEXTSTYLE
  7
STANDARD
  9
$CLAYER
  8
0
  9
$CELTYPE
  6
CONTINUOUS
  9
$CECOLOR
 62
   256
  9
$CELTSCALE
 40
1.0
  9
$DELOBJ
 70
     1
  9
$DISPSILH
 70
     0
  9
$DIMSCALE
 40
1.0
  9
$DIMASZ
 40
0.18
  9
$DIMEXO
 40
0.0625
  9
$DIMDLI
 40
0.38
  9
$DIMRND
 40
0.0
  9
$DIMDLE
 40
0.0
  9
$DIMEXE
 40
0.18
  9
$DIMTP
 40
0.0
  9
$DIMTM
 40
0.0
  9
$DIMTXT
 40
0.18
  9
$DIMCEN
 40
0.09
  9
$DIMTSZ
 40
0.0
  9
$DIMTOL
 70
     0
  9
$DIMLIM
 70
     0
  9
$DIMTIH
 70
     1
  9
$DIMTOH
 70
     1
  9
$DIMSE1
 70
     0
  9
$DIMSE2
 70
     0
  9
$DIMTAD
 70
     0
  9
$DIMZIN
 70
     0
  9
$DIMBLK
  1

  9
$DIMASO
 70
     1
  9
$DIMSHO
 70
     1
  9
$DIMPOST
  1

  9
$DIMAPOST
  1

  9
$DIMALT
 70
     0
  9
$DIMALTD
 70
     2
  9
$DIMALTF
 40
25.4
  9
$DIMLFAC
 40
1.0
  9
$DIMTOFL
 70
     0
  9
$DIMTVP
 40
0.0
  9
$DIMTIX
 70
     0
  9
$DIMSOXD
 70
     0
  9
$DIMSAH
 70
     0
  9
$DIMBLK1
  1

  9
$DIMBLK2
  1

  9
$DIMSTYLE
  2
STANDARD
  9
$DIMCLRD
 70
     0
  9
$DIMCLRE
 70
     0
  9
$DIMCLRT
 70
     0
  9
$DIMTFAC
 40
1.0
  9
$DIMGAP
 40
0.09
  9
$DIMJUST
 70
     0
  9
$DIMSD1
 70
     0
  9
$DIMSD2
 70
     0
  9
$DIMTOLJ
 70
     1
  9
$DIMTZIN
 70
     0
  9
$DIMALTZ
 70
     0
  9
$DIMALTTZ
 70
     0
  9
$DIMFIT
 70
     3
  9
$DIMUPT
 70
     0
  9
$DIMUNIT
 70
     2
  9
$DIMDEC
 70
     4
  9
$DIMTDEC
 70
     4
  9
$DIMALTU
 70
     2
  9
$DIMALTTD
 70
     2
  9
$DIMTXSTY
  7
STANDARD
  9
$DIMAUNIT
 70
     0
  9
$LUNITS
 70
     2
  9
$LUPREC
 70
     4
  9
$SKETCHINC
 40
0.1
  9
$FILLETRAD
 40
0.0
  9
$AUNITS
 70
     0
  9
$AUPREC
 70
     0
  9
$MENU
  1
acad
  9
$ELEVATION
 40
0.0
  9
$PELEVATION
 40
0.0
  9
$THICKNESS
 40
0.0
  9
$LIMCHECK
 70
     0
  9
$BLIPMODE
 70
     1
  9
$CHAMFERA
 40
0.0
  9
$CHAMFERB
 40
0.0
  9
$CHAMFERC
 40
0.0
  9
$CHAMFERD
 40
0.0
  9
$SKPOLY
 70
     0
  9
$TDCREATE
 40
2453339.795312500
  9
$TDUPDATE
 40
2453339.795312500
  9
$TDINDWG
 40
0.0000000000
  9
$TDUSRTIMER
 40
0.0000000000
  9
$USRTIMER
 70
     1
  9
$ANGBASE
 50
0.0
  9
$ANGDIR
 70
     0
  9
$PDMODE
 70
     0
  9
$PDSIZE
 40
0.0
  9
$PLINEWID
 40
0.0
  9
$COORDS
 70
     0
  9
$SPLFRAME
 70
     0
  9
$SPLINETYPE
 70
     6
  9
$SPLINESEGS
 70
    10
  9
$ATTDIA
 70
     0
  9
$ATTREQ
 70
     1
  9
$HANDLING
 70
     1
  9
$HANDSEED
  5
29A
  9
$SURFTAB1
 70
     6
  9
$SURFTAB2
 70
     6
  9
$SURFTYPE
 70
     6
  9
$SURFU
 70
     6
  9
$SURFV
 70
     6
  9
$UCSNAME
  2

  9
$UCSORG
 10
0.0
 20
0.0
 30
0.0
  9
$UCSXDIR
 10
1.0
 20
0.0
 30
0.0
  9
$UCSYDIR
 10
0.0
 20
1.0
 30
0.0
  9
$PUCSNAME
  2

  9
$PUCSORG
 10
0.0
 20
0.0
 30
0.0
  9
$PUCSXDIR
 10
1.0
 20
0.0
 30
0.0
  9
$PUCSYDIR
 10
0.0
 20
1.0
 30
0.0
  9
$USERI1
 70
     0
  9
$USERI2
 70
     0
  9
$USERI3
 70
     0
  9
$USERI4
 70
     0
  9
$USERI5
 70
     0
  9
$USERR1
 40
0.0
  9
$USERR2
 40
0.0
  9
$USERR3
 40
0.0
  9
$USERR4
 40
0.0
  9
$USERR5
 40
0.0
  9
$WORLDVIEW
 70
     1
  9
$SHADEDGE
 70
     3
  9
$SHADEDIF
 70
    70
  9
$TILEMODE
 70
     1
  9
$MAXACTVP
 70
    16
  9
$PINSBASE
 10
0.0
 20
0.0
 30
0.0
  9
$PLIMCHECK
 70
     0
  9
$PEXTMIN
 10
-1.000000E+20
 20
-1.000000E+20
 30
-1.000000E+20
  9
$PEXTMAX
 10
-1.000000E+20
 20
-1.000000E+20
 30
-1.000000E+20
  9
$PLIMMIN
 10
0.0
 20
0.0
  9
$PLIMMAX
 10
12.0
 20
9.0
  9
$UNITMODE
 70
     0
  9
$VISRETAIN
 70
     0
  9
$PLINEGEN
 70
     1
  9
$PSLTSCALE
 70
     0
  9
$TREEDEPTH
 70
  3020
  9
$PICKSTYLE
 70
     1
  9
$CMLSTYLE
  2
STANDARD
  9
$CMLJUST
 70
     0
  9
$CMLSCALE
 40
1.0
  9
$PROXYGRAPHICS
 70
     0
  9
$MEASUREMENT
 70
     0
  0
ENDSEC
  0
SECTION
  2
CLASSES
  0
CLASS
  1
LWPOLYLINE
  2
AcDbPolyline
  3
"AutoCAD"
 90
        0
280
     0
281
     1
  0
CLASS
  1
IMAGE
  2
AcDbRasterImage
  3
ISM
 90
      127
280
     0
281
     1
  0
CLASS
  1
OLE2FRAME
  2
AcDbOle2Frame
  3
""
 90
        0
280
     0
281
     1
  0
CLASS
  1
HATCH
  2
AcDbHatch
  3
"ACAD_SEDONA"
 90
        0
280
     0
281
     1
  0
CLASS
  1
DICTIONARYVAR
  2
AcDbDictionaryVar
  3
"AutoCAD"
 90
        0
280
     0
281
     0
  0
CLASS
  1
RASTERVARIABLES
  2
AcDbRasterVariables
  3
ISM
 90
        0
280
     0
281
     0
  0
CLASS
  1
IMAGEDEF
  2
AcDbRasterImageDef
  3
ISM
 90
        0
280
     0
281
     0
  0
CLASS
  1
IMAGEDEF_REACTOR
  2
AcDbRasterImageDefReactor
  3
ISM
 90
        1
280
     0
281
     0
  0
CLASS
  1
IDBUFFER
  2
AcDbIdBuffer
  3
"Acad"
 90
        0
280
     0
281
     0
  0
CLASS
  1
SPATIAL_FILTER
  2
AcDbSpatialFilter
  3
"Acad"
 90
        0
280
     0
281
     0
  0
CLASS
  1
XRECORD
  2
AcDbXrecord
  3
"<Built In>"
 90
        0
280
     0
281
     0
  0
CLASS
  1
SORTENTSTABLE
  2
AcDbSortentsTable
  3
"AutoCAD"
 90
        0
280
     0
281
     0
  0
CLASS
  1
LAYER_INDEX
  2
AcDbLayerIndex
  3
"Acad"
 90
        0
280
     0
281
     0
  0
CLASS
  1
SPATIAL_INDEX
  2
AcDbSpatialIndex
  3
"Acad"
 90
        0
280
     0
281
     0
  0
CLASS
  1
OBJECT_PTR
  2
CAseDLPNTableRecord
  3
"ASE-LPNTableRecord"
 90
        1
280
     0
281
     0
  0
ENDSEC
  0
SECTION
  2
TABLES
  0
TABLE
  2
VPORT
  5
7
100
AcDbSymbolTable
 70
     1
  0
VPORT
  5
299
100
AcDbSymbolTableRecord
100
AcDbViewportTableRecord
  2
*ACTIVE
 70
     0
 10
0.0
 20
0.0
 11
1.0
 21
1.0
 12
0.0
 22
0.0
 13
0.0
 23
0.0
 14
0.0
 24
0.0
 15
0.0
 25
0.0
 16
0.0
 26
0.0
 36
1.0
 17
19.465746
 27
510.344219
 37
0.0
 40
8.50687
 41
0.930359
 42
50.0
 43
178.243157
 44
0.0
 50
0.0
 51
0.0
 71
     0
 72
   100
 73
     1
 74
     0
 75
     0
 76
     0
 77
     0
 78
     0
  0
ENDTAB
  0
TABLE
  2
LTYPE
  5
4
100
AcDbSymbolTable
 70
     9
  0
LTYPE
  5
11
100
AcDbSymbolTableRecord
100
AcDbLinetypeTableRecord
  2
BYBLOCK
 70
     0
  3

 72
    65
 73
     0
 40
0.0
  0
LTYPE
  5
12
100
AcDbSymbolTableRecord
100
AcDbLinetypeTableRecord
  2
BYLAYER
 70
     0
  3

 72
    65
 73
     0
 40
0.0
  0
LTYPE
  5
13
100
AcDbSymbolTableRecord
100
AcDbLinetypeTableRecord
  2
CONTINUOUS
 70
     0
  3
Solid line
 72
    65
 73
     0
 40
0.0
  0
LTYPE
  5
22
100
AcDbSymbolTableRecord
100
AcDbLinetypeTableRecord
  2
DOT
 70
    64
  3
. . . . . . . . . . . . . . . . . . . . . . . . . . . . . . . . .
 72
    65
 73
     2
 40
0.25
 49
0.0
 74
     0
 49
-0.25
 74
     0
  0
LTYPE
  5
23
100
AcDbSymbolTableRecord
100
AcDbLinetypeTableRecord
  2
HIDDEN
 70
    64
  3
__ __ __ __ __ __ __ __ __ __ __ __ __ __ __ __ __ __ __ __ __ 
 72
    65
 73
     2
 40
0.375
 49
0.25
 74
     0
 49
-0.125
 74
     0
  0
LTYPE
  5
24
100
AcDbSymbolTableRecord
100
AcDbLinetypeTableRecord
  2
DASHED
 70
    64
  3
__ __ __ __ __ __ __ __ __ __ __ __ __ __ __ __ __ __ __ __ __
 72
    65
 73
     2
 40
0.75
 49
0.5
 74
     0
 49
-0.25
 74
     0
  0
LTYPE
  5
25
100
AcDbSymbolTableRecord
100
AcDbLinetypeTableRecord
  2
DASHDOT
 70
    64
  3
__ . __ . __ . __ . __ . __ . __ . __ . __ . __ . __ . __ . _
 72
    65
 73
     4
 40
1.0
 49
0.5
 74
     0
 49
-0.25
 74
     0
 49
0.0
 74
     0
 49
-0.25
 74
     0
  0
LTYPE
  5
26
100
AcDbSymbolTableRecord
100
AcDbLinetypeTableRecord
  2
DIVIDE
 70
    64
  3
____ . . ____ . . ____ . . ____ . . ____ . . ____ . . ____ . .
 72
    65
 73
     6
 40
1.25
 49
0.5
 74
     0
 49
-0.25
 74
     0
 49
0.0
 74
     0
 49
-0.25
 74
     0
 49
0.0
 74
     0
 49
-0.25
 74
     0
  0
LTYPE
  5
27
100
AcDbSymbolTableRecord
100
AcDbLinetypeTableRecord
  2
CENTER
 70
    64
  3
____ _ ____ _ ____ _ ____ _ ____ _ ____ _ ____ _ ____ _ ____ _
 72
    65
 73
     4
 40
2.0
 49
1.25
 74
     0
 49
-0.25
 74
     0
 49
0.25
 74
     0
 49
-0.25
 74
     0
  0
ENDTAB
  0
TABLE
  2
LAYER
  5
2
100
AcDbSymbolTable
 70
    18
  0
LAYER
  5
14
102
{ACAD_XDICTIONARY
360
5F205F5F5F5F205F
102
}
100
AcDbSymbolTableRecord
100
AcDbLayerTableRecord
  2
0
 70
     0
 62
     7
  6
CONTINUOUS
  0
LAYER
  5
1E
102
{ACAD_XDICTIONARY
360
5F205F5F5F5F205F
102
}
100
AcDbSymbolTableRecord
100
AcDbLayerTableRecord
  2
CONSTRUCTION_CLASS
 70
     0
 62
     7
  6
CONTINUOUS
  0
LAYER
  5
1F
102
{ACAD_XDICTIONARY
360
5F205F5F5F5F205F
102
}
100
AcDbSymbolTableRecord
100
AcDbLayerTableRecord
  2
PATTERN_CLASS
 70
     0
 62
     7
  6
CONTINUOUS
  0
LAYER
  5
2A
102
{ACAD_XDICTIONARY
360
5F205F5F5F5F205F
102
}
100
AcDbSymbolTableRecord
100
AcDbLayerTableRecord
  2
62
 70
    64
 62
     7
  6
CONTINUOUS
  0
LAYER
  5
40
102
{ACAD_XDICTIONARY
360
5F205F5F5F5F205F
102
}
100
AcDbSymbolTableRecord
100
AcDbLayerTableRecord
  2
1
 70
    64
 62
     7
  6
CONTINUOUS
  0
LAYER
  5
43
102
{ACAD_XDICTIONARY
360
5F205F5F5F5F205F
102
}
100
AcDbSymbolTableRecord
100
AcDbLayerTableRecord
  2
34
 70
    64
 62
     7
  6
CONTINUOUS
  0
LAYER
  5
46
102
{ACAD_XDICTIONARY
360
5F205F5F5F5F205F
102
}
100
AcDbSymbolTableRecord
100
AcDbLayerTableRecord
  2
37
 70
    64
 62
     7
  6
CONTINUOUS
  0
LAYER
  5
67
102
{ACAD_XDICTIONARY
360
5F205F5F5F5F205F
102
}
100
AcDbSymbolTableRecord
100
AcDbLayerTableRecord
  2
33
 70
    64
 62
     7
  6
CONTINUOUS
  0
LAYER
  5
69
102
{ACAD_XDICTIONARY
360
5F205F5F5F5F205F
102
}
100
AcDbSymbolTableRecord
100
AcDbLayerTableRecord
  2
2
 70
    64
 62
     7
  6
CONTINUOUS
  0
LAYER
  5
83
102
{ACAD_XDICTIONARY
360
5F205F5F5F5F205F
102
}
100
AcDbSymbolTableRecord
100
AcDbLayerTableRecord
  2
3
 70
    64
 62
     7
  6
CONTINUOUS
  0
LAYER
  5
94
102
{ACAD_XDICTIONARY
360
5F205F5F5F5F205F
102
}
100
AcDbSymbolTableRecord
100
AcDbLayerTableRecord
  2
5
 70
    64
 62
     7
  6
CONTINUOUS
  0
LAYER
  5
9E
102
{ACAD_XDICTIONARY
360
5F205F5F5F5F205F
102
}
100
AcDbSymbolTableRecord
100
AcDbLayerTableRecord
  2
6
 70
    64
 62
     7
  6
CONTINUOUS
  0
LAYER
  5
A6
102
{ACAD_XDICTIONARY
360
5F205F5F5F5F205F
102
}
100
AcDbSymbolTableRecord
100
AcDbLayerTableRecord
  2
45
 70
    64
 62
     7
  6
CONTINUOUS
  0
LAYER
  5
FA
102
{ACAD_XDICTIONARY
360
5F205F5F5F5F205F
102
}
100
AcDbSymbolTableRecord
100
AcDbLayerTableRecord
  2
4
 70
    64
 62
     7
  6
CONTINUOUS
  0
LAYER
  5
102
102
{ACAD_XDICTIONARY
360
5F205F5F5F5F205F
102
}
100
AcDbSymbolTableRecord
100
AcDbLayerTableRecord
  2
10
 70
    64
 62
     7
  6
CONTINUOUS
  0
LAYER
  5
109
102
{ACAD_XDICTIONARY
360
5F205F5F5F5F205F
102
}
100
AcDbSymbolTableRecord
100
AcDbLayerTableRecord
  2
DEFPOINTS
 70
    64
 62
     7
  6
CONTINUOUS
  0
LAYER
  5
189
102
{ACAD_XDICTIONARY
360
5F205F5F5F5F205F
102
}
100
AcDbSymbolTableRecord
100
AcDbLayerTableRecord
  2
20
 70
    64
 62
     7
  6
CONTINUOUS
  0
LAYER
  5
297
102
{ACAD_XDICTIONARY
360
5F205F5F5F5F205F
102
}
100
AcDbSymbolTableRecord
100
AcDbLayerTableRecord
  2
61
 70
    64
 62
     7
  6
CONTINUOUS
  0
ENDTAB
  0
TABLE
  2
STYLE
  5
3
100
AcDbSymbolTable
 70
     2
  0
STYLE
  5
17
100
AcDbSymbolTableRecord
100
AcDbTextStyleTableRecord
  2
STANDARD
 70
     0
 40
0.0
 41
1.0
 50
0.0
 71
     0
 42
0.0
  3
txt
  4

  0
STYLE
  5
108
100
AcDbSymbolTableRecord
100
AcDbTextStyleTableRecord
  2
ROMANS
 70
     0
 40
0.2
 41
1.0
 50
0.0
 71
     0
 42
0.2
  3
ROMANS
  4

  0
ENDTAB
  0
TABLE
  2
VIEW
  5
5
100
AcDbSymbolTable
 70
     0
  0
ENDTAB
  0
TABLE
  2
UCS
  5
6
100
AcDbSymbolTable
 70
     0
  0
ENDTAB
  0
TABLE
  2
APPID
  5
8
100
AcDbSymbolTable
 70
     1
  0
APPID
  5
16
100
AcDbSymbolTableRecord
100
AcDbRegAppTableRecord
  2
ACAD
 70
     0
  0
ENDTAB
  0
TABLE
  2
DIMSTYLE
  5
9
100
AcDbSymbolTable
 70
     2
  0
DIMSTYLE
105
18
100
AcDbSymbolTableRecord
100
AcDbDimStyleTableRecord
  2
STANDARD
 70
     0
  3

  4

  5

  6

  7

 40
1.0
 41
0.18
 42
0.0625
 43
0.38
 44
0.18
 45
0.0
 46
0.0
 47
0.0
 48
0.0
140
0.18
141
0.09
142
0.0
143
25.4
144
1.0
145
0.0
146
1.0
147
0.09
 71
     0
 72
     0
 73
     1
 74
     1
 75
     0
 76
     0
 77
     0
 78
     0
170
     0
171
     2
172
     0
173
     0
174
     0
175
     0
176
     0
177
     0
178
     0
270
     2
271
     4
272
     4
273
     2
274
     2
340
17
275
     0
280
     0
281
     0
282
     0
283
     1
284
     0
285
     0
286
     0
287
     0
288
     0
  0
DIMSTYLE
105
107
100
AcDbSymbolTableRecord
100
AcDbDimStyleTableRecord
  2
MSADIM
 70
     0
  3

  4

  5

  6

  7

 40
1.0
 41
0.25
 42
0.125
 43
0.0
 44
0.125
 45
0.0
 46
0.0
 47
0.0
 48
0.0
140
0.25
141
0.125
142
0.0
143
25.4
144
1.0
145
0.125
146
1.0
147
0.125
 71
     0
 72
     0
 73
     1
 74
     1
 75
     0
 76
     0
 77
     0
 78
     2
170
     0
171
     2
172
     0
173
     0
174
     0
175
     0
176
     0
177
     0
178
     0
270
     2
271
     3
272
     3
273
     5
274
     3
340
108
275
     0
280
     0
281
     0
282
     0
283
     1
284
     2
285
     0
286
     2
287
     3
288
     0
  0
ENDTAB
  0
TABLE
  2
BLOCK_RECORD
  5
1
100
AcDbSymbolTable
 70
    27
  0
BLOCK_RECORD
  5
A
100
AcDbSymbolTableRecord
100
AcDbBlockTableRecord
  2
*MODEL_SPACE
  0
BLOCK_RECORD
  5
B
100
AcDbSymbolTableRecord
100
AcDbBlockTableRecord
  2
*PAPER_SPACE
  0
BLOCK_RECORD
  5
2B
102
{ACAD_XDICTIONARY
360
70BC062400000044
102
}
100
AcDbSymbolTableRecord
100
AcDbBlockTableRecord
  2
*M0
  0
BLOCK_RECORD
  5
32
102
{ACAD_XDICTIONARY
360
70BC062400000044
102
}
100
AcDbSymbolTableRecord
100
AcDbBlockTableRecord
  2
*M1
  0
BLOCK_RECORD
  5
39
102
{ACAD_XDICTIONARY
360
70BC062400000044
102
}
100
AcDbSymbolTableRecord
100
AcDbBlockTableRecord
  2
*M2
  0
BLOCK_RECORD
  5
86
102
{ACAD_XDICTIONARY
360
70BC062400000044
102
}
100
AcDbSymbolTableRecord
100
AcDbBlockTableRecord
  2
*M3
  0
BLOCK_RECORD
  5
8D
102
{ACAD_XDICTIONARY
360
70BC062400000044
102
}
100
AcDbSymbolTableRecord
100
AcDbBlockTableRecord
  2
*M4
  0
BLOCK_RECORD
  5
B0
102
{ACAD_XDICTIONARY
360
70BC062400000044
102
}
100
AcDbSymbolTableRecord
100
AcDbBlockTableRecord
  2
*M5
  0
BLOCK_RECORD
  5
BB
102
{ACAD_XDICTIONARY
360
70BC062400000044
102
}
100
AcDbSymbolTableRecord
100
AcDbBlockTableRecord
  2
*M6
  0
BLOCK_RECORD
  5
CD
102
{ACAD_XDICTIONARY
360
70BC062400000044
102
}
100
AcDbSymbolTableRecord
100
AcDbBlockTableRecord
  2
*M7
  0
BLOCK_RECORD
  5
D8
102
{ACAD_XDICTIONARY
360
70BC062400000044
102
}
100
AcDbSymbolTableRecord
100
AcDbBlockTableRecord
  2
*M8
  0
BLOCK_RECORD
  5
E3
102
{ACAD_XDICTIONARY
360
70BC062400000044
102
}
100
AcDbSymbolTableRecord
100
AcDbBlockTableRecord
  2
*M9
  0
BLOCK_RECORD
  5
EE
102
{ACAD_XDICTIONARY
360
70BC062400000044
102
}
100
AcDbSymbolTableRecord
100
AcDbBlockTableRecord
  2
*M10
  0
BLOCK_RECORD
  5
10A
102
{ACAD_XDICTIONARY
360
70BC062400000044
102
}
100
AcDbSymbolTableRecord
100
AcDbBlockTableRecord
  2
*D11
  0
BLOCK_RECORD
  5
119
102
{ACAD_XDICTIONARY
360
70BC062400000044
102
}
100
AcDbSymbolTableRecord
100
AcDbBlockTableRecord
  2
*D12
  0
BLOCK_RECORD
  5
128
102
{ACAD_XDICTIONARY
360
70BC062400000044
102
}
100
AcDbSymbolTableRecord
100
AcDbBlockTableRecord
  2
*D13
  0
BLOCK_RECORD
  5
137
102
{ACAD_XDICTIONARY
360
70BC062400000044
102
}
100
AcDbSymbolTableRecord
100
AcDbBlockTableRecord
  2
*D14
  0
BLOCK_RECORD
  5
14E
102
{ACAD_XDICTIONARY
360
70BC062400000044
102
}
100
AcDbSymbolTableRecord
100
AcDbBlockTableRecord
  2
*D15
  0
BLOCK_RECORD
  5
15F
102
{ACAD_XDICTIONARY
360
70BC062400000044
102
}
100
AcDbSymbolTableRecord
100
AcDbBlockTableRecord
  2
*M16
  0
BLOCK_RECORD
  5
16B
102
{ACAD_XDICTIONARY
360
70BC062400000044
102
}
100
AcDbSymbolTableRecord
100
AcDbBlockTableRecord
  2
*D17
  0
BLOCK_RECORD
  5
229
102
{ACAD_XDICTIONARY
360
70BC062400000044
102
}
100
AcDbSymbolTableRecord
100
AcDbBlockTableRecord
  2
*D18
  0
BLOCK_RECORD
  5
234
102
{ACAD_XDICTIONARY
360
70BC062400000044
102
}
100
AcDbSymbolTableRecord
100
AcDbBlockTableRecord
  2
*D19
  0
BLOCK_RECORD
  5
23F
102
{ACAD_XDICTIONARY
360
70BC062400000044
102
}
100
AcDbSymbolTableRecord
100
AcDbBlockTableRecord
  2
*D20
  0
BLOCK_RECORD
  5
24A
102
{ACAD_XDICTIONARY
360
70BC062400000044
102
}
100
AcDbSymbolTableRecord
100
AcDbBlockTableRecord
  2
*D21
  0
BLOCK_RECORD
  5
259
102
{ACAD_XDICTIONARY
360
70BC062400000044
102
}
100
AcDbSymbolTableRecord
100
AcDbBlockTableRecord
  2
*D22
  0
BLOCK_RECORD
  5
268
102
{ACAD_XDICTIONARY
360
70BC062400000044
102
}
100
AcDbSymbolTableRecord
100
AcDbBlockTableRecord
  2
*D23
  0
BLOCK_RECORD
  5
273
102
{ACAD_XDICTIONARY
360
70BC062400000044
102
}
100
AcDbSymbolTableRecord
100
AcDbBlockTableRecord
  2
*D24
  0
BLOCK_RECORD
  5
27E
102
{ACAD_XDICTIONARY
360
70BC062400000044
102
}
100
AcDbSymbolTableRecord
100
AcDbBlockTableRecord
  2
*D25
  0
BLOCK_RECORD
  5
28C
102
{ACAD_XDICTIONARY
360
70BC062400000044
102
}
100
AcDbSymbolTableRecord
100
AcDbBlockTableRecord
  2
*D26
  0
ENDTAB
  0
ENDSEC
  0
SECTION
  2
BLOCKS
  0
BLOCK
  5
D
100
AcDbEntity
  8
0
100
AcDbBlockBegin
  2
*MODEL_SPACE
 70
     0
 10
0.0
 20
0.0
 30
0.0
  3
*MODEL_SPACE
  1

  0
ENDBLK
  5
E
100
AcDbEntity
  8
0
100
AcDbBlockEnd
  0
BLOCK
  5
F
100
AcDbEntity
 67
     1
  8
0
100
AcDbBlockBegin
  2
*PAPER_SPACE
 70
     0
 10
0.0
 20
0.0
 30
0.0
  3
*PAPER_SPACE
  1

  0
ENDBLK
  5
10
100
AcDbEntity
 67
     1
  8
0
100
AcDbBlockEnd
  0
BLOCK
  5
2C
100
AcDbEntity
  8
62
  6
CONTINUOUS
 62
     7
100
AcDbBlockBegin
  2
*M0
 70
     1
 10
0.0
 20
0.0
 30
0.0
  3
*M0
  1

  0
POINT
  5
2D
100
AcDbEntity
  8
62
  6
CONTINUOUS
 62
     7
100
AcDbPoint
 10
0.0
 20
0.0
 30
0.0
  0
POINT
  5
2E
100
AcDbEntity
  8
62
  6
CONTINUOUS
 62
     7
100
AcDbPoint
 10
0.0
 20
0.0
 30
0.0
  0
POINT
  5
2F
100
AcDbEntity
  8
62
  6
CONTINUOUS
 62
     7
100
AcDbPoint
 10
0.0
 20
0.0
 30
0.0
  0
ENDBLK
  5
30
100
AcDbEntity
  8
62
  6
CONTINUOUS
 62
     7
100
AcDbBlockEnd
  0
BLOCK
  5
33
100
AcDbEntity
  8
62
  6
CONTINUOUS
 62
     7
100
AcDbBlockBegin
  2
*M1
 70
     1
 10
0.0
 20
0.0
 30
0.0
  3
*M1
  1

  0
POINT
  5
34
100
AcDbEntity
  8
62
  6
CONTINUOUS
 62
     7
100
AcDbPoint
 10
0.0
 20
0.0
 30
0.0
  0
POINT
  5
35
100
AcDbEntity
  8
62
  6
CONTINUOUS
 62
     7
100
AcDbPoint
 10
0.0
 20
0.0
 30
0.0
  0
POINT
  5
36
100
AcDbEntity
  8
62
  6
CONTINUOUS
 62
     7
100
AcDbPoint
 10
0.0
 20
0.0
 30
0.0
  0
ENDBLK
  5
37
100
AcDbEntity
  8
62
  6
CONTINUOUS
 62
     7
100
AcDbBlockEnd
  0
BLOCK
  5
3A
100
AcDbEntity
  8
62
  6
CONTINUOUS
 62
     7
100
AcDbBlockBegin
  2
*M2
 70
     1
 10
0.0
 20
0.0
 30
0.0
  3
*M2
  1

  0
POINT
  5
3B
100
AcDbEntity
  8
62
  6
CONTINUOUS
 62
     7
100
AcDbPoint
 10
0.0
 20
0.0
 30
0.0
  0
POINT
  5
3C
100
AcDbEntity
  8
62
  6
CONTINUOUS
 62
     7
100
AcDbPoint
 10
0.0
 20
0.0
 30
0.0
  0
POINT
  5
3D
100
AcDbEntity
  8
62
  6
CONTINUOUS
 62
     7
100
AcDbPoint
 10
0.0
 20
0.0
 30
0.0
  0
ENDBLK
  5
3E
100
AcDbEntity
  8
62
  6
CONTINUOUS
 62
     7
100
AcDbBlockEnd
  0
BLOCK
  5
87
100
AcDbEntity
  8
62
  6
CONTINUOUS
 62
     7
100
AcDbBlockBegin
  2
*M3
 70
     1
 10
0.0
 20
0.0
 30
0.0
  3
*M3
  1

  0
POINT
  5
88
100
AcDbEntity
  8
62
  6
CONTINUOUS
 62
     7
100
AcDbPoint
 10
0.0
 20
0.0
 30
0.0
  0
POINT
  5
89
100
AcDbEntity
  8
62
  6
CONTINUOUS
 62
     7
100
AcDbPoint
 10
0.0
 20
0.0
 30
0.0
  0
POINT
  5
8A
100
AcDbEntity
  8
62
  6
CONTINUOUS
 62
     7
100
AcDbPoint
 10
0.0
 20
0.0
 30
0.0
  0
ENDBLK
  5
8B
100
AcDbEntity
  8
62
  6
CONTINUOUS
 62
     7
100
AcDbBlockEnd
  0
BLOCK
  5
8E
100
AcDbEntity
  8
62
  6
CONTINUOUS
 62
     7
100
AcDbBlockBegin
  2
*M4
 70
     1
 10
0.0
 20
0.0
 30
0.0
  3
*M4
  1

  0
POINT
  5
8F
100
AcDbEntity
  8
62
  6
CONTINUOUS
 62
     7
100
AcDbPoint
 10
0.0
 20
0.0
 30
0.0
  0
POINT
  5
90
100
AcDbEntity
  8
62
  6
CONTINUOUS
 62
     7
100
AcDbPoint
 10
0.0
 20
0.0
 30
0.0
  0
POINT
  5
91
100
AcDbEntity
  8
62
  6
CONTINUOUS
 62
     7
100
AcDbPoint
 10
0.0
 20
0.0
 30
0.0
  0
ENDBLK
  5
92
100
AcDbEntity
  8
62
  6
CONTINUOUS
 62
     7
100
AcDbBlockEnd
  0
BLOCK
  5
B1
100
AcDbEntity
  8
45
  6
CONTINUOUS
 62
     7
100
AcDbBlockBegin
  2
*M5
 70
     1
 10
0.0
 20
0.0
 30
0.0
  3
*M5
  1

  0
POINT
  5
B2
100
AcDbEntity
  8
45
  6
CONTINUOUS
 62
     7
100
AcDbPoint
 10
0.0
 20
0.0
 30
0.0
  0
LINE
  5
B3
100
AcDbEntity
  8
45
  6
CONTINUOUS
 62
     7
100
AcDbLine
 10
0.0
 20
0.031449
 30
0.0
 11
0.0
 21
-0.031449
 31
0.0
  0
POINT
  5
B4
100
AcDbEntity
  8
45
  6
CONTINUOUS
 62
     7
100
AcDbPoint
 10
0.0
 20
0.0
 30
0.0
  0
POINT
  5
B5
100
AcDbEntity
  8
45
  6
CONTINUOUS
 62
     7
100
AcDbPoint
 10
0.0
 20
0.0
 30
0.0
  0
LINE
  5
B6
100
AcDbEntity
  8
45
  6
CONTINUOUS
 62
     7
100
AcDbLine
 10
0.0
 20
-0.060827
 30
0.0
 11
0.0
 21
-0.1875
 31
0.0
  0
POINT
  5
B7
100
AcDbEntity
  8
45
  6
CONTINUOUS
 62
     7
100
AcDbPoint
 10
0.0
 20
0.0
 30
0.0
  0
LINE
  5
B8
100
AcDbEntity
  8
45
  6
CONTINUOUS
 62
     7
100
AcDbLine
 10
0.0
 20
0.060827
 30
0.0
 11
0.0
 21
0.1875
 31
0.0
  0
ENDBLK
  5
B9
100
AcDbEntity
  8
45
  6
CONTINUOUS
 62
     7
100
AcDbBlockEnd
  0
BLOCK
  5
BC
100
AcDbEntity
  8
45
  6
CONTINUOUS
 62
     7
100
AcDbBlockBegin
  2
*M6
 70
     1
 10
0.0
 20
0.0
 30
0.0
  3
*M6
  1

  0
POINT
  5
BD
100
AcDbEntity
  8
45
  6
CONTINUOUS
 62
     7
100
AcDbPoint
 10
0.0
 20
0.0
 30
0.0
  0
LINE
  5
BE
100
AcDbEntity
  8
45
  6
CONTINUOUS
 62
     7
100
AcDbLine
 10
0.0
 20
0.031449
 30
0.0
 11
0.0
 21
-0.031449
 31
0.0
  0
POINT
  5
BF
100
AcDbEntity
  8
45
  6
CONTINUOUS
 62
     7
100
AcDbPoint
 10
0.0
 20
0.0
 30
0.0
  0
POINT
  5
C0
100
AcDbEntity
  8
45
  6
CONTINUOUS
 62
     7
100
AcDbPoint
 10
0.0
 20
0.0
 30
0.0
  0
LINE
  5
C1
100
AcDbEntity
  8
45
  6
CONTINUOUS
 62
     7
100
AcDbLine
 10
0.0
 20
-0.060827
 30
0.0
 11
0.0
 21
-0.1875
 31
0.0
  0
POINT
  5
C2
100
AcDbEntity
  8
45
  6
CONTINUOUS
 62
     7
100
AcDbPoint
 10
0.0
 20
0.0
 30
0.0
  0
LINE
  5
C3
100
AcDbEntity
  8
45
  6
CONTINUOUS
 62
     7
100
AcDbLine
 10
0.0
 20
0.060827
 30
0.0
 11
0.0
 21
0.1875
 31
0.0
  0
ENDBLK
  5
C4
100
AcDbEntity
  8
45
  6
CONTINUOUS
 62
     7
100
AcDbBlockEnd
  0
BLOCK
  5
CE
100
AcDbEntity
  8
45
  6
CONTINUOUS
 62
     7
100
AcDbBlockBegin
  2
*M7
 70
     1
 10
0.0
 20
0.0
 30
0.0
  3
*M7
  1

  0
POINT
  5
CF
100
AcDbEntity
  8
45
  6
CONTINUOUS
 62
     7
100
AcDbPoint
 10
0.0
 20
0.0
 30
0.0
  0
LINE
  5
D0
100
AcDbEntity
  8
45
  6
CONTINUOUS
 62
     7
100
AcDbLine
 10
0.0
 20
0.031449
 30
0.0
 11
0.0
 21
-0.031449
 31
0.0
  0
POINT
  5
D1
100
AcDbEntity
  8
45
  6
CONTINUOUS
 62
     7
100
AcDbPoint
 10
0.0
 20
0.0
 30
0.0
  0
POINT
  5
D2
100
AcDbEntity
  8
45
  6
CONTINUOUS
 62
     7
100
AcDbPoint
 10
0.0
 20
0.0
 30
0.0
  0
LINE
  5
D3
100
AcDbEntity
  8
45
  6
CONTINUOUS
 62
     7
100
AcDbLine
 10
0.0
 20
-0.060827
 30
0.0
 11
0.0
 21
-0.1875
 31
0.0
  0
POINT
  5
D4
100
AcDbEntity
  8
45
  6
CONTINUOUS
 62
     7
100
AcDbPoint
 10
0.0
 20
0.0
 30
0.0
  0
LINE
  5
D5
100
AcDbEntity
  8
45
  6
CONTINUOUS
 62
     7
100
AcDbLine
 10
0.0
 20
0.060827
 30
0.0
 11
0.0
 21
0.1875
 31
0.0
  0
ENDBLK
  5
D6
100
AcDbEntity
  8
45
  6
CONTINUOUS
 62
     7
100
AcDbBlockEnd
  0
BLOCK
  5
D9
100
AcDbEntity
  8
45
  6
CONTINUOUS
 62
     7
100
AcDbBlockBegin
  2
*M8
 70
     1
 10
0.0
 20
0.0
 30
0.0
  3
*M8
  1

  0
POINT
  5
DA
100
AcDbEntity
  8
45
  6
CONTINUOUS
 62
     7
100
AcDbPoint
 10
0.0
 20
0.0
 30
0.0
  0
LINE
  5
DB
100
AcDbEntity
  8
45
  6
CONTINUOUS
 62
     7
100
AcDbLine
 10
0.0
 20
0.031449
 30
0.0
 11
0.0
 21
-0.031449
 31
0.0
  0
POINT
  5
DC
100
AcDbEntity
  8
45
  6
CONTINUOUS
 62
     7
100
AcDbPoint
 10
0.0
 20
0.0
 30
0.0
  0
POINT
  5
DD
100
AcDbEntity
  8
45
  6
CONTINUOUS
 62
     7
100
AcDbPoint
 10
0.0
 20
0.0
 30
0.0
  0
LINE
  5
DE
100
AcDbEntity
  8
45
  6
CONTINUOUS
 62
     7
100
AcDbLine
 10
0.0
 20
-0.060827
 30
0.0
 11
0.0
 21
-0.1875
 31
0.0
  0
POINT
  5
DF
100
AcDbEntity
  8
45
  6
CONTINUOUS
 62
     7
100
AcDbPoint
 10
0.0
 20
0.0
 30
0.0
  0
LINE
  5
E0
100
AcDbEntity
  8
45
  6
CONTINUOUS
 62
     7
100
AcDbLine
 10
0.0
 20
0.060827
 30
0.0
 11
0.0
 21
0.1875
 31
0.0
  0
ENDBLK
  5
E1
100
AcDbEntity
  8
45
  6
CONTINUOUS
 62
     7
100
AcDbBlockEnd
  0
BLOCK
  5
E4
100
AcDbEntity
  8
45
  6
CONTINUOUS
 62
     7
100
AcDbBlockBegin
  2
*M9
 70
     1
 10
0.0
 20
0.0
 30
0.0
  3
*M9
  1

  0
POINT
  5
E5
100
AcDbEntity
  8
45
  6
CONTINUOUS
 62
     7
100
AcDbPoint
 10
0.0
 20
0.0
 30
0.0
  0
LINE
  5
E6
100
AcDbEntity
  8
45
  6
CONTINUOUS
 62
     7
100
AcDbLine
 10
0.0
 20
0.031449
 30
0.0
 11
0.0
 21
-0.031449
 31
0.0
  0
POINT
  5
E7
100
AcDbEntity
  8
45
  6
CONTINUOUS
 62
     7
100
AcDbPoint
 10
0.0
 20
0.0
 30
0.0
  0
POINT
  5
E8
100
AcDbEntity
  8
45
  6
CONTINUOUS
 62
     7
100
AcDbPoint
 10
0.0
 20
0.0
 30
0.0
  0
LINE
  5
E9
100
AcDbEntity
  8
45
  6
CONTINUOUS
 62
     7
100
AcDbLine
 10
0.0
 20
-0.060827
 30
0.0
 11
0.0
 21
-0.1875
 31
0.0
  0
POINT
  5
EA
100
AcDbEntity
  8
45
  6
CONTINUOUS
 62
     7
100
AcDbPoint
 10
0.0
 20
0.0
 30
0.0
  0
LINE
  5
EB
100
AcDbEntity
  8
45
  6
CONTINUOUS
 62
     7
100
AcDbLine
 10
0.0
 20
0.060827
 30
0.0
 11
0.0
 21
0.1875
 31
0.0
  0
ENDBLK
  5
EC
100
AcDbEntity
  8
45
  6
CONTINUOUS
 62
     7
100
AcDbBlockEnd
  0
BLOCK
  5
EF
100
AcDbEntity
  8
45
  6
CONTINUOUS
 62
     7
100
AcDbBlockBegin
  2
*M10
 70
     1
 10
0.0
 20
0.0
 30
0.0
  3
*M10
  1

  0
POINT
  5
F0
100
AcDbEntity
  8
45
  6
CONTINUOUS
 62
     7
100
AcDbPoint
 10
0.0
 20
0.0
 30
0.0
  0
LINE
  5
F1
100
AcDbEntity
  8
45
  6
CONTINUOUS
 62
     7
100
AcDbLine
 10
0.0
 20
0.031449
 30
0.0
 11
0.0
 21
-0.031449
 31
0.0
  0
POINT
  5
F2
100
AcDbEntity
  8
45
  6
CONTINUOUS
 62
     7
100
AcDbPoint
 10
0.0
 20
0.0
 30
0.0
  0
POINT
  5
F3
100
AcDbEntity
  8
45
  6
CONTINUOUS
 62
     7
100
AcDbPoint
 10
0.0
 20
0.0
 30
0.0
  0
LINE
  5
F4
100
AcDbEntity
  8
45
  6
CONTINUOUS
 62
     7
100
AcDbLine
 10
0.0
 20
-0.060827
 30
0.0
 11
0.0
 21
-0.1875
 31
0.0
  0
POINT
  5
F5
100
AcDbEntity
  8
45
  6
CONTINUOUS
 62
     7
100
AcDbPoint
 10
0.0
 20
0.0
 30
0.0
  0
LINE
  5
F6
100
AcDbEntity
  8
45
  6
CONTINUOUS
 62
     7
100
AcDbLine
 10
0.0
 20
0.060827
 30
0.0
 11
0.0
 21
0.1875
 31
0.0
  0
ENDBLK
  5
F7
100
AcDbEntity
  8
45
  6
CONTINUOUS
 62
     7
100
AcDbBlockEnd
  0
BLOCK
  5
10B
100
AcDbEntity
  8
4
  6
CONTINUOUS
 62
     7
100
AcDbBlockBegin
  2
*D11
 70
     1
 10
0.0
 20
0.0
 30
0.0
  3
*N11
  1

  0
LINE
  5
10C
100
AcDbEntity
  8
4
  6
CONTINUOUS
 62
     7
100
AcDbLine
 10
0.0
 20
524.456165
 30
0.0
 11
0.0
 21
524.456165
 31
0.0
  0
LINE
  5
10D
100
AcDbEntity
  8
4
  6
CONTINUOUS
 62
     7
100
AcDbLine
 10
12.9375
 20
525.428181
 30
0.0
 11
12.9375
 21
524.206165
 31
0.0
  0
LINE
  5
10E
100
AcDbEntity
  8
4
  6
CONTINUOUS
 62
     7
100
AcDbLine
 10
5.356638
 20
524.331165
 30
0.0
 11
0.0
 21
524.331165
 31
0.0
  0
LINE
  5
10F
100
AcDbEntity
  8
4
  6
CONTINUOUS
 62
     7
100
AcDbLine
 10
6.75248
 20
524.331165
 30
0.0
 11
12.9375
 21
524.331165
 31
0.0
  0
SOLID
  5
110
100
AcDbEntity
  8
4
  6
CONTINUOUS
 62
     7
100
AcDbTrace
 10
0.25
 20
524.268665
 30
0.0
 11
0.0
 21
524.331165
 31
0.0
 12
0.25
 22
524.393665
 32
0.0
 13
0.25
 23
524.393665
 33
0.0
  0
SOLID
  5
111
100
AcDbEntity
  8
4
  6
CONTINUOUS
 62
     7
100
AcDbTrace
 10
12.6875
 20
524.393665
 30
0.0
 11
12.9375
 21
524.331165
 31
0.0
 12
12.6875
 22
524.268665
 32
0.0
 13
12.6875
 23
524.268665
 33
0.0
  0
MTEXT
  5
112
100
AcDbEntity
  8
4
  6
CONTINUOUS
 62
     7
100
AcDbMText
 10
5.481638
 20
524.206165
 30
0.0
 40
0.25
 41
3.593764
 71
     7
 72
     1
  1
{\A0;12.94}
  7
ROMANS
210
0.0
220
0.0
230
1.0
  0
POINT
  5
113
100
AcDbEntity
  8
DEFPOINTS
  6
BYBLOCK
 62
     0
 48
0.0
100
AcDbPoint
 10
0.0
 20
524.331165
 30
0.0
  0
POINT
  5
114
100
AcDbEntity
  8
DEFPOINTS
  6
BYBLOCK
 62
     0
 48
0.0
100
AcDbPoint
 10
12.9375
 20
525.553181
 30
0.0
  0
POINT
  5
115
100
AcDbEntity
  8
DEFPOINTS
  6
BYBLOCK
 62
     0
 48
0.0
100
AcDbPoint
 10
0.0
 20
524.331165
 30
0.0
  0
POINT
  5
116
100
AcDbEntity
  8
DEFPOINTS
  6
BYBLOCK
 62
     0
 48
0.0
100
AcDbPoint
 10
6.054559
 20
524.206165
 30
0.0
  0
ENDBLK
  5
117
100
AcDbEntity
  8
4
  6
CONTINUOUS
 62
     7
100
AcDbBlockEnd
  0
BLOCK
  5
11A
100
AcDbEntity
  8
4
  6
CONTINUOUS
 62
     7
100
AcDbBlockBegin
  2
*D12
 70
     1
 10
0.0
 20
0.0
 30
0.0
  3
*N12
  1

  0
LINE
  5
11B
100
AcDbEntity
  8
4
  6
CONTINUOUS
 62
     7
100
AcDbLine
 10
0.0
 20
524.581165
 30
0.0
 11
0.0
 21
524.581165
 31
0.0
  0
LINE
  5
11C
100
AcDbEntity
  8
4
  6
CONTINUOUS
 62
     7
100
AcDbLine
 10
12.125
 20
524.672571
 30
0.0
 11
12.125
 21
524.331165
 31
0.0
  0
LINE
  5
11D
100
AcDbEntity
  8
4
  6
CONTINUOUS
 62
     7
100
AcDbLine
 10
5.137429
 20
524.456165
 30
0.0
 11
0.0
 21
524.456165
 31
0.0
  0
LINE
  5
11E
100
AcDbEntity
  8
4
  6
CONTINUOUS
 62
     7
100
AcDbLine
 10
6.533272
 20
524.456165
 30
0.0
 11
12.125
 21
524.456165
 31
0.0
  0
SOLID
  5
11F
100
AcDbEntity
  8
4
  6
CONTINUOUS
 62
     7
100
AcDbTrace
 10
0.25
 20
524.393665
 30
0.0
 11
0.0
 21
524.456165
 31
0.0
 12
0.25
 22
524.518665
 32
0.0
 13
0.25
 23
524.518665
 33
0.0
  0
SOLID
  5
120
100
AcDbEntity
  8
4
  6
CONTINUOUS
 62
     7
100
AcDbTrace
 10
11.875
 20
524.518665
 30
0.0
 11
12.125
 21
524.456165
 31
0.0
 12
11.875
 22
524.393665
 32
0.0
 13
11.875
 23
524.393665
 33
0.0
  0
MTEXT
  5
121
100
AcDbEntity
  8
4
  6
CONTINUOUS
 62
     7
100
AcDbMText
 10
5.262429
 20
524.331165
 30
0.0
 40
0.25
 41
3.593764
 71
     7
 72
     1
  1
{\A0;12.13}
  7
ROMANS
210
0.0
220
0.0
230
1.0
  0
POINT
  5
122
100
AcDbEntity
  8
DEFPOINTS
  6
BYBLOCK
 62
     0
 48
0.0
100
AcDbPoint
 10
0.0
 20
524.456165
 30
0.0
  0
POINT
  5
123
100
AcDbEntity
  8
DEFPOINTS
  6
BYBLOCK
 62
     0
 48
0.0
100
AcDbPoint
 10
12.125
 20
524.797571
 30
0.0
  0
POINT
  5
124
100
AcDbEntity
  8
DEFPOINTS
  6
BYBLOCK
 62
     0
 48
0.0
100
AcDbPoint
 10
0.0
 20
524.456165
 30
0.0
  0
POINT
  5
125
100
AcDbEntity
  8
DEFPOINTS
  6
BYBLOCK
 62
     0
 48
0.0
100
AcDbPoint
 10
5.83535
 20
524.331165
 30
0.0
  0
ENDBLK
  5
126
100
AcDbEntity
  8
4
  6
CONTINUOUS
 62
     7
100
AcDbBlockEnd
  0
BLOCK
  5
129
100
AcDbEntity
  8
4
  6
CONTINUOUS
 62
     7
100
AcDbBlockBegin
  2
*D13
 70
     1
 10
0.0
 20
0.0
 30
0.0
  3
*N13
  1

  0
LINE
  5
12A
100
AcDbEntity
  8
4
  6
CONTINUOUS
 62
     7
100
AcDbLine
 10
0.0
 20
524.581165
 30
0.0
 11
0.0
 21
524.581165
 31
0.0
  0
LINE
  5
12B
100
AcDbEntity
  8
4
  6
CONTINUOUS
 62
     7
100
AcDbLine
 10
18.468878
 20
523.681677
 30
0.0
 11
18.468878
 21
524.581165
 31
0.0
  0
LINE
  5
12C
100
AcDbEntity
  8
4
  6
CONTINUOUS
 62
     7
100
AcDbLine
 10
9.083169
 20
524.456165
 30
0.0
 11
0.0
 21
524.456165
 31
0.0
  0
LINE
  5
12D
100
AcDbEntity
  8
4
  6
CONTINUOUS
 62
     7
100
AcDbLine
 10
10.479012
 20
524.456165
 30
0.0
 11
18.468878
 21
524.456165
 31
0.0
  0
SOLID
  5
12E
100
AcDbEntity
  8
4
  6
CONTINUOUS
 62
     7
100
AcDbTrace
 10
0.25
 20
524.393665
 30
0.0
 11
0.0
 21
524.456165
 31
0.0
 12
0.25
 22
524.518665
 32
0.0
 13
0.25
 23
524.518665
 33
0.0
  0
SOLID
  5
12F
100
AcDbEntity
  8
4
  6
CONTINUOUS
 62
     7
100
AcDbTrace
 10
18.218878
 20
524.518665
 30
0.0
 11
18.468878
 21
524.456165
 31
0.0
 12
18.218878
 22
524.393665
 32
0.0
 13
18.218878
 23
524.393665
 33
0.0
  0
MTEXT
  5
130
100
AcDbEntity
  8
4
  6
CONTINUOUS
 62
     7
100
AcDbMText
 10
9.208169
 20
524.331165
 30
0.0
 40
0.25
 41
3.593764
 71
     7
 72
     1
  1
{\A0;18.47}
  7
ROMANS
210
0.0
220
0.0
230
1.0
  0
POINT
  5
131
100
AcDbEntity
  8
DEFPOINTS
  6
BYBLOCK
 62
     0
 48
0.0
100
AcDbPoint
 10
0.0
 20
524.456165
 30
0.0
  0
POINT
  5
132
100
AcDbEntity
  8
DEFPOINTS
  6
BYBLOCK
 62
     0
 48
0.0
100
AcDbPoint
 10
18.468878
 20
523.556677
 30
0.0
  0
POINT
  5
133
100
AcDbEntity
  8
DEFPOINTS
  6
BYBLOCK
 62
     0
 48
0.0
100
AcDbPoint
 10
0.0
 20
524.456165
 30
0.0
  0
POINT
  5
134
100
AcDbEntity
  8
DEFPOINTS
  6
BYBLOCK
 62
     0
 48
0.0
100
AcDbPoint
 10
9.781091
 20
524.331165
 30
0.0
  0
ENDBLK
  5
135
100
AcDbEntity
  8
4
  6
CONTINUOUS
 62
     7
100
AcDbBlockEnd
  0
BLOCK
  5
138
100
AcDbEntity
  8
4
  6
CONTINUOUS
 62
     7
100
AcDbBlockBegin
  2
*D14
 70
     1
 10
0.0
 20
0.0
 30
0.0
  3
*N14
  1

  0
LINE
  5
139
100
AcDbEntity
  8
4
  6
CONTINUOUS
 62
     7
100
AcDbLine
 10
13.499969
 20
523.24913
 30
0.0
 11
13.499969
 21
523.24913
 31
0.0
  0
LINE
  5
13A
100
AcDbEntity
  8
4
  6
CONTINUOUS
 62
     7
100
AcDbLine
 10
0.0
 20
524.331165
 30
0.0
 11
0.0
 21
522.99913
 31
0.0
  0
LINE
  5
13B
100
AcDbEntity
  8
4
  6
CONTINUOUS
 62
     7
100
AcDbLine
 10
6.781488
 20
523.12413
 30
0.0
 11
13.499969
 21
523.12413
 31
0.0
  0
LINE
  5
13C
100
AcDbEntity
  8
4
  6
CONTINUOUS
 62
     7
100
AcDbLine
 10
5.635004
 20
523.12413
 30
0.0
 11
0.0
 21
523.12413
 31
0.0
  0
SOLID
  5
13D
100
AcDbEntity
  8
4
  6
CONTINUOUS
 62
     7
100
AcDbTrace
 10
13.249969
 20
523.18663
 30
0.0
 11
13.499969
 21
523.12413
 31
0.0
 12
13.249969
 22
523.06163
 32
0.0
 13
13.249969
 23
523.06163
 33
0.0
  0
SOLID
  5
13E
100
AcDbEntity
  8
4
  6
CONTINUOUS
 62
     7
100
AcDbTrace
 10
0.25
 20
523.06163
 30
0.0
 11
0.0
 21
523.12413
 31
0.0
 12
0.25
 22
523.18663
 32
0.0
 13
0.25
 23
523.18663
 33
0.0
  0
MTEXT
  5
13F
100
AcDbEntity
  8
4
  6
CONTINUOUS
 62
     7
100
AcDbMText
 10
5.760004
 20
522.99913
 30
0.0
 40
0.25
 41
3.219726
 71
     7
 72
     1
  1
{\A0;13.5}
  7
ROMANS
210
0.0
220
0.0
230
1.0
  0
POINT
  5
140
100
AcDbEntity
  8
DEFPOINTS
  6
BYBLOCK
 62
     0
 48
0.0
100
AcDbPoint
 10
13.499969
 20
523.12413
 30
0.0
  0
POINT
  5
141
100
AcDbEntity
  8
DEFPOINTS
  6
BYBLOCK
 62
     0
 48
0.0
100
AcDbPoint
 10
0.0
 20
524.456165
 30
0.0
  0
POINT
  5
142
100
AcDbEntity
  8
DEFPOINTS
  6
BYBLOCK
 62
     0
 48
0.0
100
AcDbPoint
 10
13.499969
 20
523.12413
 30
0.0
  0
POINT
  5
143
100
AcDbEntity
  8
DEFPOINTS
  6
BYBLOCK
 62
     0
 48
0.0
100
AcDbPoint
 10
6.208246
 20
522.99913
 30
0.0
  0
ENDBLK
  5
144
100
AcDbEntity
  8
4
  6
CONTINUOUS
 62
     7
100
AcDbBlockEnd
  0
BLOCK
  5
14F
100
AcDbEntity
  8
5
  6
CONTINUOUS
 62
     7
100
AcDbBlockBegin
  2
*D15
 70
     1
 10
0.0
 20
0.0
 30
0.0
  3
*N15
  1

  0
LINE
  5
150
100
AcDbEntity
  8
5
  6
CONTINUOUS
 62
     7
100
AcDbLine
 10
13.502004
 20
523.192043
 30
0.0
 11
13.502004
 21
523.192043
 31
0.0
  0
LINE
  5
151
100
AcDbEntity
  8
5
  6
CONTINUOUS
 62
     7
100
AcDbLine
 10
13.502004
 20
523.437181
 30
0.0
 11
13.502004
 21
523.437181
 31
0.0
  0
LINE
  5
152
100
AcDbEntity
  8
5
  6
CONTINUOUS
 62
     7
100
AcDbLine
 10
13.502004
 20
522.942043
 30
0.0
 11
13.502004
 21
523.192043
 31
0.0
  0
LINE
  5
153
100
AcDbEntity
  8
5
  6
CONTINUOUS
 62
     7
100
AcDbLine
 10
13.502004
 20
523.912681
 30
0.0
 11
13.502004
 21
523.437181
 31
0.0
  0
SOLID
  5
154
100
AcDbEntity
  8
5
  6
CONTINUOUS
 62
     7
100
AcDbTrace
 10
13.470754
 20
523.067043
 30
0.0
 11
13.502004
 21
523.192043
 31
0.0
 12
13.533254
 22
523.067043
 32
0.0
 13
13.533254
 23
523.067043
 33
0.0
  0
SOLID
  5
155
100
AcDbEntity
  8
5
  6
CONTINUOUS
 62
     7
100
AcDbTrace
 10
13.533254
 20
523.562181
 30
0.0
 11
13.502004
 21
523.437181
 31
0.0
 12
13.470754
 22
523.562181
 32
0.0
 13
13.470754
 23
523.562181
 33
0.0
  0
MTEXT
  5
156
100
AcDbEntity
  8
5
  6
CONTINUOUS
 62
     7
100
AcDbMText
 10
13.277882
 20
523.975181
 30
0.0
 40
0.125
 41
1.60986
 71
     7
 72
     1
  1
{\A0;.245}
  7
ROMANS
210
0.0
220
0.0
230
1.0
  0
POINT
  5
157
100
AcDbEntity
  8
DEFPOINTS
  6
BYBLOCK
 62
     0
 48
0.0
100
AcDbPoint
 10
14.386193
 20
523.192043
 30
0.0
  0
POINT
  5
158
100
AcDbEntity
  8
DEFPOINTS
  6
BYBLOCK
 62
     0
 48
0.0
100
AcDbPoint
 10
14.027004
 20
523.437181
 30
0.0
  0
POINT
  5
159
100
AcDbEntity
  8
DEFPOINTS
  6
BYBLOCK
 62
     0
 48
0.0
100
AcDbPoint
 10
13.502004
 20
523.192043
 30
0.0
  0
POINT
  5
15A
100
AcDbEntity
  8
DEFPOINTS
  6
BYBLOCK
 62
     0
 48
0.0
100
AcDbPoint
 10
13.502002
 20
523.975181
 30
0.0
  0
ENDBLK
  5
15B
100
AcDbEntity
  8
5
  6
CONTINUOUS
 62
     7
100
AcDbBlockEnd
  0
BLOCK
  5
160
100
AcDbEntity
  8
45
  6
CONTINUOUS
 62
     7
100
AcDbBlockBegin
  2
*M16
 70
     1
 10
0.0
 20
0.0
 30
0.0
  3
*M16
  1

  0
POINT
  5
161
100
AcDbEntity
  8
45
  6
CONTINUOUS
 62
     7
100
AcDbPoint
 10
0.0
 20
0.0
 30
0.0
  0
LINE
  5
162
100
AcDbEntity
  8
45
  6
CONTINUOUS
 62
     7
100
AcDbLine
 10
0.0
 20
-0.031449
 30
0.0
 11
0.0
 21
0.031449
 31
0.0
  0
POINT
  5
163
100
AcDbEntity
  8
45
  6
CONTINUOUS
 62
     7
100
AcDbPoint
 10
0.0
 20
0.0
 30
0.0
  0
POINT
  5
164
100
AcDbEntity
  8
45
  6
CONTINUOUS
 62
     7
100
AcDbPoint
 10
0.0
 20
0.0
 30
0.0
  0
LINE
  5
165
100
AcDbEntity
  8
45
  6
CONTINUOUS
 62
     7
100
AcDbLine
 10
0.0
 20
0.060827
 30
0.0
 11
0.0
 21
0.1875
 31
0.0
  0
POINT
  5
166
100
AcDbEntity
  8
45
  6
CONTINUOUS
 62
     7
100
AcDbPoint
 10
0.0
 20
0.0
 30
0.0
  0
LINE
  5
167
100
AcDbEntity
  8
45
  6
CONTINUOUS
 62
     7
100
AcDbLine
 10
0.0
 20
-0.060827
 30
0.0
 11
0.0
 21
-0.1875
 31
0.0
  0
ENDBLK
  5
168
100
AcDbEntity
  8
45
  6
CONTINUOUS
 62
     7
100
AcDbBlockEnd
  0
BLOCK
  5
16C
100
AcDbEntity
  8
4
  6
CONTINUOUS
 62
     7
100
AcDbBlockBegin
  2
*D17
 70
     1
 10
0.0
 20
0.0
 30
0.0
  3
*N17
  1

  0
LINE
  5
16D
100
AcDbEntity
  8
4
  6
CONTINUOUS
 62
     7
100
AcDbLine
 10
13.502004
 20
523.004543
 30
0.0
 11
13.502004
 21
523.004543
 31
0.0
  0
LINE
  5
16E
100
AcDbEntity
  8
4
  6
CONTINUOUS
 62
     7
100
AcDbLine
 10
13.502004
 20
523.437181
 30
0.0
 11
13.502004
 21
523.437181
 31
0.0
  0
LINE
  5
16F
100
AcDbEntity
  8
4
  6
CONTINUOUS
 62
     7
100
AcDbLine
 10
13.502004
 20
522.754543
 30
0.0
 11
13.502004
 21
523.004543
 31
0.0
  0
LINE
  5
170
100
AcDbEntity
  8
4
  6
CONTINUOUS
 62
     7
100
AcDbLine
 10
13.502004
 20
523.687181
 30
0.0
 11
13.502004
 21
523.437181
 31
0.0
  0
SOLID
  5
171
100
AcDbEntity
  8
4
  6
CONTINUOUS
 62
     7
100
AcDbTrace
 10
13.470754
 20
522.879543
 30
0.0
 11
13.502004
 21
523.004543
 31
0.0
 12
13.533254
 22
522.879543
 32
0.0
 13
13.533254
 23
522.879543
 33
0.0
  0
SOLID
  5
172
100
AcDbEntity
  8
4
  6
CONTINUOUS
 62
     7
100
AcDbTrace
 10
13.533254
 20
523.562181
 30
0.0
 11
13.502004
 21
523.437181
 31
0.0
 12
13.470754
 22
523.562181
 32
0.0
 13
13.470754
 23
523.562181
 33
0.0
  0
MTEXT
  5
173
100
AcDbEntity
  8
4
  6
CONTINUOUS
 62
     7
100
AcDbMText
 10
13.278043
 20
523.067043
 30
0.0
 40
0.125
 41
1.609382
 71
     7
 72
     1
  1
{\A0;.433}
  7
ROMANS
210
0.0
220
0.0
230
1.0
  0
POINT
  5
174
100
AcDbEntity
  8
DEFPOINTS
  6
BYBLOCK
 62
     0
 48
0.0
100
AcDbPoint
 10
14.317894
 20
523.004543
 30
0.0
  0
POINT
  5
175
100
AcDbEntity
  8
DEFPOINTS
  6
BYBLOCK
 62
     0
 48
0.0
100
AcDbPoint
 10
14.027004
 20
523.437181
 30
0.0
  0
POINT
  5
176
100
AcDbEntity
  8
DEFPOINTS
  6
BYBLOCK
 62
     0
 48
0.0
100
AcDbPoint
 10
13.502004
 20
523.004543
 30
0.0
  0
POINT
  5
177
100
AcDbEntity
  8
DEFPOINTS
  6
BYBLOCK
 62
     0
 48
0.0
100
AcDbPoint
 10
13.502004
 20
523.067043
 30
0.0
  0
ENDBLK
  5
178
100
AcDbEntity
  8
4
  6
CONTINUOUS
 62
     7
100
AcDbBlockEnd
  0
BLOCK
  5
22A
100
AcDbEntity
  8
4
  6
CONTINUOUS
 62
     7
100
AcDbBlockBegin
  2
*D18
 70
     1
 10
0.0
 20
0.0
 30
0.0
  3
*N18
  1

  0
LINE
  5
22B
100
AcDbEntity
  8
4
  6
CONTINUOUS
 62
     7
100
AcDbLine
 10
21.476745
 20
508.595303
 30
0.0
 11
20.731587
 21
508.986913
 31
0.0
  0
LINE
  5
22C
100
AcDbEntity
  8
4
  6
CONTINUOUS
 62
     7
100
AcDbLine
 10
20.731587
 20
508.986913
 30
0.0
 11
20.431587
 21
508.986913
 31
0.0
  0
SOLID
  5
22D
100
AcDbEntity
  8
4
  6
CONTINUOUS
 62
     7
100
AcDbTrace
 10
21.36141
 20
508.69828
 30
0.0
 11
21.476745
 21
508.595303
 31
0.0
 12
21.32652
 22
508.631889
 32
0.0
 13
21.32652
 23
508.631889
 33
0.0
  0
MTEXT
  5
22E
100
AcDbEntity
  8
4
  6
CONTINUOUS
 62
     7
100
AcDbMText
 10
19.819083
 20
508.911913
 30
0.0
 40
0.15
 41
2.381256
 71
     7
 72
     1
  1
{\A0;R 5.37}
  7
ROMANS
210
0.0
220
0.0
230
1.0
  0
POINT
  5
22F
100
AcDbEntity
  8
DEFPOINTS
  6
BYBLOCK
 62
     0
 48
0.0
100
AcDbPoint
 10
16.725406
 20
511.092319
 30
0.0
  0
POINT
  5
230
100
AcDbEntity
  8
DEFPOINTS
  6
BYBLOCK
 62
     0
 48
0.0
100
AcDbPoint
 10
21.476745
 20
508.595303
 30
0.0
  0
POINT
  5
231
100
AcDbEntity
  8
DEFPOINTS
  6
BYBLOCK
 62
     0
 48
0.0
100
AcDbPoint
 10
20.087835
 20
508.911913
 30
0.0
  0
ENDBLK
  5
232
100
AcDbEntity
  8
4
  6
CONTINUOUS
 62
     7
100
AcDbBlockEnd
  0
BLOCK
  5
235
100
AcDbEntity
  8
4
  6
CONTINUOUS
 62
     7
100
AcDbBlockBegin
  2
*D19
 70
     1
 10
0.0
 20
0.0
 30
0.0
  3
*N19
  1

  0
LINE
  5
236
100
AcDbEntity
  8
4
  6
CONTINUOUS
 62
     7
100
AcDbLine
 10
19.633736
 20
508.18952
 30
0.0
 11
19.87885
 21
508.397661
 31
0.0
  0
LINE
  5
237
100
AcDbEntity
  8
4
  6
CONTINUOUS
 62
     7
100
AcDbLine
 10
19.87885
 20
508.397661
 30
0.0
 11
20.17885
 21
508.397661
 31
0.0
  0
SOLID
  5
238
100
AcDbEntity
  8
4
  6
CONTINUOUS
 62
     7
100
AcDbTrace
 10
19.772347
 20
508.258027
 30
0.0
 11
19.633736
 21
508.18952
 31
0.0
 12
19.723802
 22
508.315196
 32
0.0
 13
19.723802
 23
508.315196
 33
0.0
  0
MTEXT
  5
239
100
AcDbEntity
  8
4
  6
CONTINUOUS
 62
     7
100
AcDbMText
 10
20.47885
 20
508.322661
 30
0.0
 40
0.15
 41
2.156835
 71
     7
 72
     1
  1
{\A0;R 0.5}
  7
ROMANS
210
0.0
220
0.0
230
1.0
  0
POINT
  5
23A
100
AcDbEntity
  8
DEFPOINTS
  6
BYBLOCK
 62
     0
 48
0.0
100
AcDbPoint
 10
20.014862
 20
508.513157
 30
0.0
  0
POINT
  5
23B
100
AcDbEntity
  8
DEFPOINTS
  6
BYBLOCK
 62
     0
 48
0.0
100
AcDbPoint
 10
19.633736
 20
508.18952
 30
0.0
  0
POINT
  5
23C
100
AcDbEntity
  8
DEFPOINTS
  6
BYBLOCK
 62
     0
 48
0.0
100
AcDbPoint
 10
20.672795
 20
508.322661
 30
0.0
  0
ENDBLK
  5
23D
100
AcDbEntity
  8
4
  6
CONTINUOUS
 62
     7
100
AcDbBlockEnd
  0
BLOCK
  5
240
100
AcDbEntity
  8
4
  6
CONTINUOUS
 62
     7
100
AcDbBlockBegin
  2
*D20
 70
     1
 10
0.0
 20
0.0
 30
0.0
  3
*N20
  1

  0
LINE
  5
241
100
AcDbEntity
  8
4
  6
CONTINUOUS
 62
     7
100
AcDbLine
 10
21.444573
 20
514.240933
 30
0.0
 11
21.62222
 21
514.575315
 31
0.0
  0
LINE
  5
242
100
AcDbEntity
  8
4
  6
CONTINUOUS
 62
     7
100
AcDbLine
 10
21.62222
 20
514.575315
 30
0.0
 11
21.92222
 21
514.575315
 31
0.0
  0
SOLID
  5
243
100
AcDbEntity
  8
4
  6
CONTINUOUS
 62
     7
100
AcDbTrace
 10
21.548065
 20
514.355806
 30
0.0
 11
21.444573
 21
514.240933
 31
0.0
 12
21.481832
 22
514.390993
 32
0.0
 13
21.481832
 23
514.390993
 33
0.0
  0
MTEXT
  5
244
100
AcDbEntity
  8
4
  6
CONTINUOUS
 62
     7
100
AcDbMText
 10
22.22222
 20
514.500315
 30
0.0
 40
0.15
 41
2.381256
 71
     7
 72
     1
  1
{\A0;R 0.62}
  7
ROMANS
210
0.0
220
0.0
230
1.0
  0
POINT
  5
245
100
AcDbEntity
  8
DEFPOINTS
  6
BYBLOCK
 62
     0
 48
0.0
100
AcDbPoint
 10
21.151343
 20
513.688992
 30
0.0
  0
POINT
  5
246
100
AcDbEntity
  8
DEFPOINTS
  6
BYBLOCK
 62
     0
 48
0.0
100
AcDbPoint
 10
21.444573
 20
514.240933
 30
0.0
  0
POINT
  5
247
100
AcDbEntity
  8
DEFPOINTS
  6
BYBLOCK
 62
     0
 48
0.0
100
AcDbPoint
 10
22.490972
 20
514.500315
 30
0.0
  0
ENDBLK
  5
248
100
AcDbEntity
  8
4
  6
CONTINUOUS
 62
     7
100
AcDbBlockEnd
  0
BLOCK
  5
24B
100
AcDbEntity
  8
4
  6
CONTINUOUS
 62
     7
100
AcDbBlockBegin
  2
*D21
 70
     1
 10
0.0
 20
0.0
 30
0.0
  3
*N21
  1

  0
LINE
  5
24C
100
AcDbEntity
  8
4
  6
CONTINUOUS
 62
     7
100
AcDbLine
 10
16.725406
 20
511.167319
 30
0.0
 11
16.725406
 21
511.167319
 31
0.0
  0
LINE
  5
24D
100
AcDbEntity
  8
4
  6
CONTINUOUS
 62
     7
100
AcDbLine
 10
21.312685
 20
511.944417
 30
0.0
 11
21.312685
 21
511.017319
 31
0.0
  0
LINE
  5
24E
100
AcDbEntity
  8
4
  6
CONTINUOUS
 62
     7
100
AcDbLine
 10
19.064012
 20
511.092319
 30
0.0
 11
16.725406
 21
511.092319
 31
0.0
  0
LINE
  5
24F
100
AcDbEntity
  8
4
  6
CONTINUOUS
 62
     7
100
AcDbLine
 10
19.751516
 20
511.092319
 30
0.0
 11
21.312685
 21
511.092319
 31
0.0
  0
SOLID
  5
250
100
AcDbEntity
  8
4
  6
CONTINUOUS
 62
     7
100
AcDbTrace
 10
16.875406
 20
511.054819
 30
0.0
 11
16.725406
 21
511.092319
 31
0.0
 12
16.875406
 22
511.129819
 32
0.0
 13
16.875406
 23
511.129819
 33
0.0
  0
SOLID
  5
251
100
AcDbEntity
  8
4
  6
CONTINUOUS
 62
     7
100
AcDbTrace
 10
21.162685
 20
511.129819
 30
0.0
 11
21.312685
 21
511.092319
 31
0.0
 12
21.162685
 22
511.054819
 32
0.0
 13
21.162685
 23
511.054819
 33
0.0
  0
MTEXT
  5
252
100
AcDbEntity
  8
4
  6
CONTINUOUS
 62
     7
100
AcDbMText
 10
19.139012
 20
511.017319
 30
0.0
 40
0.15
 41
1.931256
 71
     7
 72
     1
  1
{\A0;4.59}
  7
ROMANS
210
0.0
220
0.0
230
1.0
  0
POINT
  5
253
100
AcDbEntity
  8
DEFPOINTS
  6
BYBLOCK
 62
     0
 48
0.0
100
AcDbPoint
 10
16.725406
 20
511.092319
 30
0.0
  0
POINT
  5
254
100
AcDbEntity
  8
DEFPOINTS
  6
BYBLOCK
 62
     0
 48
0.0
100
AcDbPoint
 10
21.312685
 20
512.019417
 30
0.0
  0
POINT
  5
255
100
AcDbEntity
  8
DEFPOINTS
  6
BYBLOCK
 62
     0
 48
0.0
100
AcDbPoint
 10
16.725406
 20
511.092319
 30
0.0
  0
POINT
  5
256
100
AcDbEntity
  8
DEFPOINTS
  6
BYBLOCK
 62
     0
 48
0.0
100
AcDbPoint
 10
19.407764
 20
511.017319
 30
0.0
  0
ENDBLK
  5
257
100
AcDbEntity
  8
4
  6
CONTINUOUS
 62
     7
100
AcDbBlockEnd
  0
BLOCK
  5
25A
100
AcDbEntity
  8
4
  6
CONTINUOUS
 62
     7
100
AcDbBlockBegin
  2
*D22
 70
     1
 10
0.0
 20
0.0
 30
0.0
  3
*N22
  1

  0
LINE
  5
25B
100
AcDbEntity
  8
4
  6
CONTINUOUS
 62
     7
100
AcDbLine
 10
21.686697
 20
512.863992
 30
0.0
 11
21.686697
 21
512.863992
 31
0.0
  0
LINE
  5
25C
100
AcDbEntity
  8
4
  6
CONTINUOUS
 62
     7
100
AcDbLine
 10
23.561697
 20
512.926492
 30
0.0
 11
23.561697
 21
512.863992
 31
0.0
  0
LINE
  5
25D
100
AcDbEntity
  8
4
  6
CONTINUOUS
 62
     7
100
AcDbLine
 10
22.380209
 20
512.938992
 30
0.0
 11
21.686697
 21
512.938992
 31
0.0
  0
LINE
  5
25E
100
AcDbEntity
  8
4
  6
CONTINUOUS
 62
     7
100
AcDbLine
 10
23.067713
 20
512.938992
 30
0.0
 11
23.561697
 21
512.938992
 31
0.0
  0
SOLID
  5
25F
100
AcDbEntity
  8
4
  6
CONTINUOUS
 62
     7
100
AcDbTrace
 10
21.836697
 20
512.901492
 30
0.0
 11
21.686697
 21
512.938992
 31
0.0
 12
21.836697
 22
512.976492
 32
0.0
 13
21.836697
 23
512.976492
 33
0.0
  0
SOLID
  5
260
100
AcDbEntity
  8
4
  6
CONTINUOUS
 62
     7
100
AcDbTrace
 10
23.411697
 20
512.976492
 30
0.0
 11
23.561697
 21
512.938992
 31
0.0
 12
23.411697
 22
512.901492
 32
0.0
 13
23.411697
 23
512.901492
 33
0.0
  0
MTEXT
  5
261
100
AcDbEntity
  8
4
  6
CONTINUOUS
 62
     7
100
AcDbMText
 10
22.455209
 20
512.863992
 30
0.0
 40
0.15
 41
1.931256
 71
     7
 72
     1
  1
{\A0;1.88}
  7
ROMANS
210
0.0
220
0.0
230
1.0
  0
POINT
  5
262
100
AcDbEntity
  8
DEFPOINTS
  6
BYBLOCK
 62
     0
 48
0.0
100
AcDbPoint
 10
21.686697
 20
512.938992
 30
0.0
  0
POINT
  5
263
100
AcDbEntity
  8
DEFPOINTS
  6
BYBLOCK
 62
     0
 48
0.0
100
AcDbPoint
 10
23.561697
 20
513.001492
 30
0.0
  0
POINT
  5
264
100
AcDbEntity
  8
DEFPOINTS
  6
BYBLOCK
 62
     0
 48
0.0
100
AcDbPoint
 10
21.686697
 20
512.938992
 30
0.0
  0
POINT
  5
265
100
AcDbEntity
  8
DEFPOINTS
  6
BYBLOCK
 62
     0
 48
0.0
100
AcDbPoint
 10
22.723961
 20
512.863992
 30
0.0
  0
ENDBLK
  5
266
100
AcDbEntity
  8
4
  6
CONTINUOUS
 62
     7
100
AcDbBlockEnd
  0
BLOCK
  5
269
100
AcDbEntity
  8
4
  6
CONTINUOUS
 62
     7
100
AcDbBlockBegin
  2
*D23
 70
     1
 10
0.0
 20
0.0
 30
0.0
  3
*N23
  1

  0
LINE
  5
26A
100
AcDbEntity
  8
4
  6
CONTINUOUS
 62
     7
100
AcDbLine
 10
21.369011
 20
507.216274
 30
0.0
 11
21.584323
 21
507.010067
 31
0.0
  0
LINE
  5
26B
100
AcDbEntity
  8
4
  6
CONTINUOUS
 62
     7
100
AcDbLine
 10
21.584323
 20
507.010067
 30
0.0
 11
21.884323
 21
507.010067
 31
0.0
  0
SOLID
  5
26C
100
AcDbEntity
  8
4
  6
CONTINUOUS
 62
     7
100
AcDbTrace
 10
21.451405
 20
507.08544
 30
0.0
 11
21.369011
 21
507.216274
 31
0.0
 12
21.50328
 22
507.139606
 32
0.0
 13
21.50328
 23
507.139606
 33
0.0
  0
MTEXT
  5
26D
100
AcDbEntity
  8
4
  6
CONTINUOUS
 62
     7
100
AcDbMText
 10
22.184323
 20
506.935067
 30
0.0
 40
0.15
 41
2.381256
 71
     7
 72
     1
  1
{\A0;R 1.88}
  7
ROMANS
210
0.0
220
0.0
230
1.0
  0
POINT
  5
26E
100
AcDbEntity
  8
DEFPOINTS
  6
BYBLOCK
 62
     0
 48
0.0
100
AcDbPoint
 10
20.014862
 20
508.513157
 30
0.0
  0
POINT
  5
26F
100
AcDbEntity
  8
DEFPOINTS
  6
BYBLOCK
 62
     0
 48
0.0
100
AcDbPoint
 10
21.369011
 20
507.216274
 30
0.0
  0
POINT
  5
270
100
AcDbEntity
  8
DEFPOINTS
  6
BYBLOCK
 62
     0
 48
0.0
100
AcDbPoint
 10
22.453075
 20
506.935067
 30
0.0
  0
ENDBLK
  5
271
100
AcDbEntity
  8
4
  6
CONTINUOUS
 62
     7
100
AcDbBlockEnd
  0
BLOCK
  5
274
100
AcDbEntity
  8
4
  6
CONTINUOUS
 62
     7
100
AcDbBlockBegin
  2
*D24
 70
     1
 10
0.0
 20
0.0
 30
0.0
  3
*N24
  1

  0
LINE
  5
275
100
AcDbEntity
  8
4
  6
CONTINUOUS
 62
     7
100
AcDbLine
 10
22.344968
 20
508.837581
 30
0.0
 11
22.683402
 21
508.701791
 31
0.0
  0
LINE
  5
276
100
AcDbEntity
  8
4
  6
CONTINUOUS
 62
     7
100
AcDbLine
 10
22.683402
 20
508.701791
 30
0.0
 11
22.983402
 21
508.701791
 31
0.0
  0
SOLID
  5
277
100
AcDbEntity
  8
4
  6
CONTINUOUS
 62
     7
100
AcDbTrace
 10
22.470216
 20
508.746922
 30
0.0
 11
22.344968
 21
508.837581
 31
0.0
 12
22.498144
 22
508.816528
 32
0.0
 13
22.498144
 23
508.816528
 33
0.0
  0
MTEXT
  5
278
100
AcDbEntity
  8
4
  6
CONTINUOUS
 62
     7
100
AcDbMText
 10
23.283402
 20
508.626791
 30
0.0
 40
0.15
 41
2.391803
 71
     7
 72
     1
  1
{\A0;R 6.06}
  7
ROMANS
210
0.0
220
0.0
230
1.0
  0
POINT
  5
279
100
AcDbEntity
  8
DEFPOINTS
  6
BYBLOCK
 62
     0
 48
0.0
100
AcDbPoint
 10
16.725406
 20
511.092319
 30
0.0
  0
POINT
  5
27A
100
AcDbEntity
  8
DEFPOINTS
  6
BYBLOCK
 62
     0
 48
0.0
100
AcDbPoint
 10
22.344968
 20
508.837581
 30
0.0
  0
POINT
  5
27B
100
AcDbEntity
  8
DEFPOINTS
  6
BYBLOCK
 62
     0
 48
0.0
100
AcDbPoint
 10
23.555669
 20
508.626791
 30
0.0
  0
ENDBLK
  5
27C
100
AcDbEntity
  8
4
  6
CONTINUOUS
 62
     7
100
AcDbBlockEnd
  0
BLOCK
  5
27F
100
AcDbEntity
  8
4
  6
CONTINUOUS
 62
     7
100
AcDbBlockBegin
  2
*D25
 70
     1
 10
0.0
 20
0.0
 30
0.0
  3
*N25
  1

  0
ARC
  5
280
100
AcDbEntity
  8
4
  6
CONTINUOUS
 62
     7
100
AcDbCircle
 10
16.725406
 20
511.092319
 30
0.0
 40
2.336051
210
0.0
220
0.0
230
1.0
100
AcDbArc
 50
270.0
 51
279.807906
  0
ARC
  5
281
100
AcDbEntity
  8
4
  6
CONTINUOUS
 62
     7
100
AcDbCircle
 10
16.725406
 20
511.092319
 30
0.0
 40
2.336051
210
0.0
220
0.0
230
1.0
100
AcDbArc
 50
295.588732
 51
305.396691
  0
SOLID
  5
282
100
AcDbEntity
  8
4
  6
CONTINUOUS
 62
     7
100
AcDbTrace
 10
16.876532
 20
508.723603
 30
0.0
 11
16.725406
 21
508.756268
 31
0.0
 12
16.874124
 22
508.798564
 32
0.0
 13
16.874124
 23
508.798564
 33
0.0
  0
SOLID
  5
283
100
AcDbEntity
  8
4
  6
CONTINUOUS
 62
     7
100
AcDbTrace
 10
17.932797
 20
509.136396
 30
0.0
 11
18.078526
 21
509.18806
 31
0.0
 12
17.974254
 22
509.073896
 32
0.0
 13
17.974254
 23
509.073896
 33
0.0
  0
MTEXT
  5
284
100
AcDbEntity
  8
4
  6
CONTINUOUS
 62
     7
100
AcDbMText
 10
17.108634
 20
508.791831
 30
0.0
 40
0.15
 41
2.105829
 71
     7
 72
     1
  1
{\A0;35.4%%d}
  7
ROMANS
210
0.0
220
0.0
230
1.0
  0
POINT
  5
285
100
AcDbEntity
  8
DEFPOINTS
  6
BYBLOCK
 62
     0
 48
0.0
100
AcDbPoint
 10
14.390723
 20
511.012357
 30
0.0
  0
POINT
  5
286
100
AcDbEntity
  8
DEFPOINTS
  6
BYBLOCK
 62
     0
 48
0.0
100
AcDbPoint
 10
16.725406
 20
508.986913
 30
0.0
  0
POINT
  5
287
100
AcDbEntity
  8
DEFPOINTS
  6
BYBLOCK
 62
     0
 48
0.0
100
AcDbPoint
 10
18.218043
 20
508.991717
 30
0.0
  0
POINT
  5
288
100
AcDbEntity
  8
DEFPOINTS
  6
BYBLOCK
 62
     0
 48
0.0
100
AcDbPoint
 10
17.435577
 20
508.791831
 30
0.0
  0
ENDBLK
  5
289
100
AcDbEntity
  8
4
  6
CONTINUOUS
 62
     7
100
AcDbBlockEnd
  0
BLOCK
  5
28D
100
AcDbEntity
  8
4
  6
CONTINUOUS
 62
     7
100
AcDbBlockBegin
  2
*D26
 70
     1
 10
0.0
 20
0.0
 30
0.0
  3
*N26
  1

  0
LINE
  5
28E
100
AcDbEntity
  8
4
  6
CONTINUOUS
 62
     7
100
AcDbLine
 10
16.567662
 20
511.761478
 30
0.0
 11
16.486858
 21
512.104252
 31
0.0
  0
LINE
  5
28F
100
AcDbEntity
  8
4
  6
CONTINUOUS
 62
     7
100
AcDbLine
 10
16.486858
 20
512.104252
 30
0.0
 11
16.186858
 21
512.104252
 31
0.0
  0
SOLID
  5
290
100
AcDbEntity
  8
4
  6
CONTINUOUS
 62
     7
100
AcDbTrace
 10
16.569745
 20
511.916081
 30
0.0
 11
16.567662
 21
511.761478
 31
0.0
 12
16.496745
 22
511.898872
 32
0.0
 13
16.496745
 23
511.898872
 33
0.0
  0
MTEXT
  5
291
100
AcDbEntity
  8
4
  6
CONTINUOUS
 62
     7
100
AcDbMText
 10
15.574354
 20
512.029252
 30
0.0
 40
0.15
 41
2.381256
 71
     7
 72
     1
  1
{\A0;R 0.69}
  7
ROMANS
210
0.0
220
0.0
230
1.0
  0
POINT
  5
292
100
AcDbEntity
  8
DEFPOINTS
  6
BYBLOCK
 62
     0
 48
0.0
100
AcDbPoint
 10
16.725406
 20
511.092319
 30
0.0
  0
POINT
  5
293
100
AcDbEntity
  8
DEFPOINTS
  6
BYBLOCK
 62
     0
 48
0.0
100
AcDbPoint
 10
16.567662
 20
511.761478
 30
0.0
  0
POINT
  5
294
100
AcDbEntity
  8
DEFPOINTS
  6
BYBLOCK
 62
     0
 48
0.0
100
AcDbPoint
 10
15.843106
 20
512.029252
 30
0.0
  0
ENDBLK
  5
295
100
AcDbEntity
  8
4
  6
CONTINUOUS
 62
     7
100
AcDbBlockEnd
  0
ENDSEC
  0
SECTION
  2
ENTITIES
  0
INSERT
  5
31
100
AcDbEntity
  8
62
  6
CONTINUOUS
 62
     7
100
AcDbBlockReference
  2
*M0
 10
12.0
 20
524.629677
 30
0.0
210
0.0
220
0.0
230
1.0
  0
INSERT
  5
38
100
AcDbEntity
  8
62
  6
CONTINUOUS
 62
     7
100
AcDbBlockReference
  2
*M1
 10
18.0
 20
524.929677
 30
0.0
210
0.0
220
0.0
230
1.0
  0
INSERT
  5
3F
100
AcDbEntity
  8
62
  6
CONTINUOUS
 62
     7
100
AcDbBlockReference
  2
*M2
 10
20.0
 20
525.029677
 30
0.0
210
0.0
220
0.0
230
1.0
  0
LINE
  5
41
100
AcDbEntity
  8
1
  6
CONTINUOUS
 62
     7
100
AcDbLine
 10
19.000047
 20
518.329681
 30
0.0
 11
19.000047
 21
524.934354
 31
0.0
  0
LINE
  5
42
100
AcDbEntity
  8
1
  6
CONTINUOUS
 62
     7
100
AcDbLine
 10
19.000047
 20
518.329681
 30
0.0
 11
19.000047
 21
524.934354
 31
0.0
  0
SPLINE
  5
44
100
AcDbEntity
  8
34
  6
CONTINUOUS
 62
     7
100
AcDbSpline
210
0.0
220
0.0
230
1.0
 70
     8
 71
     3
 72
    13
 73
     9
 74
     0
 42
0.0
 43
0.0
 12
-0.0000000000006181
 22
1.0
 32
0.0
 13
-0.0000055203886287
 23
-0.9999999999847626
 33
0.0
 40
0.0
 40
0.0
 40
0.0
 40
0.0
 40
0.0849354411870872
 40
0.2527569505631723
 40
0.470691013834761
 40
0.6616716625456101
 40
0.7975897671643597
 40
1.0
 40
1.0
 40
1.0
 40
1.0
 10
25.625
 20
525.26905511811026
 30
0.0
 10
25.625
 20
525.27480314960633
 30
0.0
 10
25.625
 20
525.254437007874
 30
0.0
 10
25.625
 20
525.11965354330709
 30
0.0
 10
25.625
 20
524.89349212598427
 30
0.0
 10
25.625
 20
524.13276771653545
 30
0.0
 10
25.625
 20
522.64445669291331
 30
0.0
 10
25.625
 20
520.46920078740152
 30
0.0
 10
25.624988188976388
 20
518.32967322834645
 30
0.0
  0
SPLINE
  5
45
100
AcDbEntity
  8
34
  6
CONTINUOUS
 62
     7
100
AcDbSpline
210
0.0
220
0.0
230
1.0
 70
     8
 71
     3
 72
    13
 73
     9
 74
     0
 42
0.0
 43
0.0
 12
-0.0000000000006181
 22
1.0
 32
0.0
 13
-0.0000055203886287
 23
-0.9999999999847626
 33
0.0
 40
0.0
 40
0.0
 40
0.0
 40
0.0
 40
0.0849354411870872
 40
0.2527569505631723
 40
0.470691013834761
 40
0.6616716625456101
 40
0.7975897671643597
 40
1.0
 40
1.0
 40
1.0
 40
1.0
 10
25.625
 20
525.26905511811026
 30
0.0
 10
25.625
 20
525.27480314960633
 30
0.0
 10
25.625
 20
525.254437007874
 30
0.0
 10
25.625
 20
525.11965354330709
 30
0.0
 10
25.625
 20
524.89349212598427
 30
0.0
 10
25.625
 20
524.13276771653545
 30
0.0
 10
25.625
 20
522.64445669291331
 30
0.0
 10
25.625
 20
520.46920078740152
 30
0.0
 10
25.624988188976388
 20
518.32967322834645
 30
0.0
  0
SPLINE
  5
47
100
AcDbEntity
  8
37
  6
CONTINUOUS
 62
     7
100
AcDbSpline
210
0.0
220
0.0
230
1.0
 70
     8
 71
     1
 72
     4
 73
     2
 74
     0
 42
0.0
 43
0.0
 12
0.9993308711127217
 22
0.036576085644705
 32
0.0
 13
0.9993308711127217
 23
0.036576085644705
 33
0.0
 40
0.0
 40
0.0
 40
1.0
 40
1.0
 10
0.0
 20
524.33116535433066
 30
0.0
 10
25.625
 20
525.26905511811026
 30
0.0
  0
SPLINE
  5
48
100
AcDbEntity
  8
37
  6
CONTINUOUS
 62
     7
100
AcDbSpline
210
0.0
220
0.0
230
1.0
 70
     8
 71
     1
 72
     4
 73
     2
 74
     0
 42
0.0
 43
0.0
 12
0.9993049449289888
 22
0.0372777016521998
 32
0.0
 13
0.9993049449289888
 23
0.0372777016521998
 33
0.0
 40
0.0
 40
0.0
 40
1.0
 40
1.0
 10
0.0
 20
524.30005118110239
 30
0.0
 10
25.625
 20
525.2559566929134
 30
0.0
  0
SPLINE
  5
49
100
AcDbEntity
  8
37
  6
CONTINUOUS
 62
     7
100
AcDbSpline
210
0.0
220
0.0
230
1.0
 70
     8
 71
     1
 72
     4
 73
     2
 74
     0
 42
0.0
 43
0.0
 12
0.9992975819313849
 22
0.0374745613194761
 32
0.0
 13
0.9992975819313849
 23
0.0374745613194761
 33
0.0
 40
0.0
 40
0.0
 40
1.0
 40
1.0
 10
0.0
 20
524.24301181102362
 30
0.0
 10
25.625
 20
525.20397244094488
 30
0.0
  0
SPLINE
  5
4A
100
AcDbEntity
  8
37
  6
CONTINUOUS
 62
     7
100
AcDbSpline
210
0.0
220
0.0
230
1.0
 70
     8
 71
     1
 72
     4
 73
     2
 74
     0
 42
0.0
 43
0.0
 12
0.9992762766972055
 22
0.0380384388503269
 32
0.0
 13
0.9992762766972055
 23
0.0380384388503269
 33
0.0
 40
0.0
 40
0.0
 40
1.0
 40
1.0
 10
0.0
 20
524.1535787401574
 30
0.0
 10
25.625
 20
525.12901968503934
 30
0.0
  0
SPLINE
  5
4B
100
AcDbEntity
  8
37
  6
CONTINUOUS
 62
     7
100
AcDbSpline
210
0.0
220
0.0
230
1.0
 70
     8
 71
     1
 72
     4
 73
     2
 74
     0
 42
0.0
 43
0.0
 12
0.9992235187155463
 22
0.0393999955040883
 32
0.0
 13
0.9992235187155463
 23
0.0393999955040883
 33
0.0
 40
0.0
 40
0.0
 40
1.0
 40
1.0
 10
0.0
 20
524.02494881889766
 30
0.0
 10
25.625
 20
525.03535826771656
 30
0.0
  0
SPLINE
  5
4C
100
AcDbEntity
  8
37
  6
CONTINUOUS
 62
     7
100
AcDbSpline
210
0.0
220
0.0
230
1.0
 70
     8
 71
     1
 72
     4
 73
     2
 74
     0
 42
0.0
 43
0.0
 12
0.9991610780461804
 22
0.0409529012109593
 32
0.0
 13
0.9991610780461804
 23
0.0409529012109593
 33
0.0
 40
0.0
 40
0.0
 40
1.0
 40
1.0
 10
0.0
 20
523.84636220472441
 30
0.0
 10
25.625
 20
524.89666141732278
 30
0.0
  0
SPLINE
  5
4D
100
AcDbEntity
  8
37
  6
CONTINUOUS
 62
     7
100
AcDbSpline
210
0.0
220
0.0
230
1.0
 70
     8
 71
     1
 72
     4
 73
     2
 74
     0
 42
0.0
 43
0.0
 12
0.9991233980802422
 22
0.0418620999065979
 32
0.0
 13
0.9991233980802422
 23
0.0418620999065979
 33
0.0
 40
0.0
 40
0.0
 40
1.0
 40
1.0
 10
0.0
 20
523.60453149606292
 30
0.0
 10
25.625
 20
524.6781889763779
 30
0.0
  0
SPLINE
  5
4E
100
AcDbEntity
  8
37
  6
CONTINUOUS
 62
     7
100
AcDbSpline
210
0.0
220
0.0
230
1.0
 70
     8
 71
     1
 72
     4
 73
     2
 74
     0
 42
0.0
 43
0.0
 12
0.9991456245888898
 22
0.0413282090693205
 32
0.0
 13
0.9991456245888898
 23
0.0413282090693205
 33
0.0
 40
0.0
 40
0.0
 40
1.0
 40
1.0
 10
0.0
 20
523.28549999999996
 30
0.0
 10
25.625
 20
524.34544094488183
 30
0.0
  0
SPLINE
  5
4F
100
AcDbEntity
  8
37
  6
CONTINUOUS
 62
     7
100
AcDbSpline
210
0.0
220
0.0
230
1.0
 70
     8
 71
     1
 72
     4
 73
     2
 74
     0
 42
0.0
 43
0.0
 12
0.9992372979925678
 22
0.0390489731044515
 32
0.0
 13
0.9992372979925678
 23
0.0390489731044515
 33
0.0
 40
0.0
 40
0.0
 40
1.0
 40
1.0
 10
0.0
 20
522.86290944881887
 30
0.0
 10
25.625
 20
523.86430314960626
 30
0.0
  0
SPLINE
  5
50
100
AcDbEntity
  8
37
  6
CONTINUOUS
 62
     7
100
AcDbSpline
210
0.0
220
0.0
230
1.0
 70
     8
 71
     1
 72
     4
 73
     2
 74
     0
 42
0.0
 43
0.0
 12
0.9994149015323847
 22
0.0342031372101132
 32
0.0
 13
0.9994149015323847
 23
0.0342031372101132
 33
0.0
 40
0.0
 40
0.0
 40
1.0
 40
1.0
 10
0.0
 20
522.29824015748034
 30
0.0
 10
25.625
 20
523.17520866141729
 30
0.0
  0
SPLINE
  5
51
100
AcDbEntity
  8
37
  6
CONTINUOUS
 62
     7
100
AcDbSpline
210
0.0
220
0.0
230
1.0
 70
     8
 71
     1
 72
     4
 73
     2
 74
     0
 42
0.0
 43
0.0
 12
0.9996849226763875
 22
0.025100903838407
 32
0.0
 13
0.9996849226763875
 23
0.025100903838407
 33
0.0
 40
0.0
 40
0.0
 40
1.0
 40
1.0
 10
0.0
 20
521.489937007874
 30
0.0
 10
25.625
 20
522.13335039370077
 30
0.0
  0
SPLINE
  5
52
100
AcDbEntity
  8
37
  6
CONTINUOUS
 62
     7
100
AcDbSpline
210
0.0
220
0.0
230
1.0
 70
     8
 71
     1
 72
     4
 73
     2
 74
     0
 42
0.0
 43
0.0
 12
0.9999109904486161
 22
0.0133420830482939
 32
0.0
 13
0.9999109904486161
 23
0.0133420830482939
 33
0.0
 40
0.0
 40
0.0
 40
1.0
 40
1.0
 10
0.0
 20
520.23203543307079
 30
0.0
 10
25.624996062992139
 20
520.57395669291338
 30
0.0
  0
SPLINE
  5
53
100
AcDbEntity
  8
37
  6
CONTINUOUS
 62
     7
100
AcDbSpline
210
0.0
220
0.0
230
1.0
 70
     8
 71
     1
 72
     4
 73
     2
 74
     0
 42
0.0
 43
0.0
 12
0.9999999999999882
 22
-0.0000001536394003
 32
0.0
 13
0.9999999999999882
 23
-0.0000001536394003
 33
0.0
 40
0.0
 40
0.0
 40
1.0
 40
1.0
 10
0.0
 20
518.32967716535427
 30
0.0
 10
25.624988188976388
 20
518.32967322834645
 30
0.0
  0
SPLINE
  5
54
100
AcDbEntity
  8
37
  6
CONTINUOUS
 62
     7
100
AcDbSpline
210
0.0
220
0.0
230
1.0
 70
     8
 71
     3
 72
    17
 73
    13
 74
     0
 42
0.0
 43
0.0
 12
0.0
 22
-1.0
 32
0.0
 13
0.0
 23
-1.0
 33
0.0
 40
0.0
 40
0.0
 40
0.0
 40
0.0
 40
0.0849354411870872
 40
0.2527569505631723
 40
0.2778580334400097
 40
0.470691013834761
 40
0.5395762592272723
 40
0.6616716625456101
 40
0.7291826204067016
 40
0.7975897671643597
 40
0.8024309975106414
 40
1.0
 40
1.0
 40
1.0
 40
1.0
 10
0.0
 20
524.33116535433066
 30
0.0
 10
0.0
 20
524.32426377952754
 30
0.0
 10
0.0
 20
524.29370866141733
 30
0.0
 10
0.0
 20
524.21621259842516
 30
0.0
 10
0.0
 20
524.03882677165348
 30
0.0
 10
0.0
 20
523.84538976377951
 30
0.0
 10
0.0
 20
523.41320078740159
 30
0.0
 10
0.0
 20
523.02387795275592
 30
0.0
 10
0.0
 20
522.47177559055115
 30
0.0
 10
0.0
 20
522.09233464566921
 30
0.0
 10
0.0
 20
521.18801574803149
 30
0.0
 10
0.0
 20
520.13854724409441
 30
0.0
 10
0.0
 20
518.32967716535427
 30
0.0
  0
SPLINE
  5
55
100
AcDbEntity
  8
37
  6
CONTINUOUS
 62
     7
100
AcDbSpline
210
0.0
220
0.0
230
1.0
 70
     8
 71
     3
 72
    17
 73
    13
 74
     0
 42
0.0
 43
0.0
 12
-0.0000000000030904
 22
-1.0
 32
0.0
 13
-0.0000020204183485
 23
-0.999999999997959
 33
0.0
 40
0.0
 40
0.0
 40
0.0
 40
0.0
 40
0.0849354411870872
 40
0.2527569505631723
 40
0.2778580334400097
 40
0.470691013834761
 40
0.5395762592272723
 40
0.6616716625456101
 40
0.7291826204067016
 40
0.7975897671643597
 40
0.8024309975106414
 40
1.0
 40
1.0
 40
1.0
 40
1.0
 10
12.8125
 20
524.80011023622046
 30
0.0
 10
12.8125
 20
524.79953543307079
 30
0.0
 10
12.8125
 20
524.77407086614176
 30
0.0
 10
12.8125
 20
524.69554330708661
 30
0.0
 10
12.8125
 20
524.54141338582679
 30
0.0
 10
12.8125
 20
524.37962204724408
 30
0.0
 10
12.8125
 20
523.95311023622048
 30
0.0
 10
12.8125
 20
523.53943700787397
 30
0.0
 10
12.8125
 20
522.93885826771645
 30
0.0
 10
12.8125
 20
522.50044094488192
 30
0.0
 10
12.8125
 20
521.46373622047247
 30
0.0
 10
12.8125
 20
520.27828740157474
 30
0.0
 10
12.812496062992125
 20
518.32967716535427
 30
0.0
  0
SPLINE
  5
56
100
AcDbEntity
  8
37
  6
CONTINUOUS
 62
     7
100
AcDbSpline
210
0.0
220
0.0
230
1.0
 70
     8
 71
     3
 72
    17
 73
    13
 74
     0
 42
0.0
 43
0.0
 12
-0.0000000000006181
 22
1.0
 32
0.0
 13
-0.0000056556607457
 23
-0.9999999999840068
 33
0.0
 40
0.0
 40
0.0
 40
0.0
 40
0.0
 40
0.0849354411870872
 40
0.2527569505631723
 40
0.2778580334400097
 40
0.470691013834761
 40
0.5395762592272723
 40
0.6616716625456101
 40
0.7291826204067016
 40
0.7975897671643597
 40
0.8024309975106414
 40
1.0
 40
1.0
 40
1.0
 40
1.0
 10
25.625
 20
525.26905511811026
 30
0.0
 10
25.625
 20
525.27480314960633
 30
0.0
 10
25.625
 20
525.254437007874
 30
0.0
 10
25.625
 20
525.17487007874013
 30
0.0
 10
25.625
 20
525.04399999999998
 30
0.0
 10
25.625
 20
524.91385039370073
 30
0.0
 10
25.625
 20
524.49301968503937
 30
0.0
 10
25.625
 20
524.05499606299213
 30
0.0
 10
25.625
 20
523.40594094488188
 30
0.0
 10
25.625
 20
522.90854330708657
 30
0.0
 10
25.625
 20
521.73945669291334
 30
0.0
 10
25.625
 20
520.41802755905508
 30
0.0
 10
25.624988188976388
 20
518.32967322834645
 30
0.0
  0
SPLINE
  5
57
100
AcDbEntity
  8
37
  6
CONTINUOUS
 62
     7
100
AcDbSpline
210
0.0
220
0.0
230
1.0
 70
     8
 71
     1
 72
     4
 73
     2
 74
     0
 42
0.0
 43
0.0
 12
0.9993308711127217
 22
0.036576085644705
 32
0.0
 13
0.9993308711127217
 23
0.036576085644705
 33
0.0
 40
0.0
 40
0.0
 40
1.0
 40
1.0
 10
0.0
 20
524.33116535433066
 30
0.0
 10
25.625
 20
525.26905511811026
 30
0.0
  0
SPLINE
  5
58
100
AcDbEntity
  8
37
  6
CONTINUOUS
 62
     7
100
AcDbSpline
210
0.0
220
0.0
230
1.0
 70
     8
 71
     1
 72
     4
 73
     2
 74
     0
 42
0.0
 43
0.0
 12
0.9993049449289888
 22
0.0372777016521998
 32
0.0
 13
0.9993049449289888
 23
0.0372777016521998
 33
0.0
 40
0.0
 40
0.0
 40
1.0
 40
1.0
 10
0.0
 20
524.30005118110239
 30
0.0
 10
25.625
 20
525.2559566929134
 30
0.0
  0
SPLINE
  5
59
100
AcDbEntity
  8
37
  6
CONTINUOUS
 62
     7
100
AcDbSpline
210
0.0
220
0.0
230
1.0
 70
     8
 71
     1
 72
     4
 73
     2
 74
     0
 42
0.0
 43
0.0
 12
0.9992975819313849
 22
0.0374745613194761
 32
0.0
 13
0.9992975819313849
 23
0.0374745613194761
 33
0.0
 40
0.0
 40
0.0
 40
1.0
 40
1.0
 10
0.0
 20
524.24301181102362
 30
0.0
 10
25.625
 20
525.20397244094488
 30
0.0
  0
SPLINE
  5
5A
100
AcDbEntity
  8
37
  6
CONTINUOUS
 62
     7
100
AcDbSpline
210
0.0
220
0.0
230
1.0
 70
     8
 71
     1
 72
     4
 73
     2
 74
     0
 42
0.0
 43
0.0
 12
0.9992762766972055
 22
0.0380384388503269
 32
0.0
 13
0.9992762766972055
 23
0.0380384388503269
 33
0.0
 40
0.0
 40
0.0
 40
1.0
 40
1.0
 10
0.0
 20
524.1535787401574
 30
0.0
 10
25.625
 20
525.12901968503934
 30
0.0
  0
SPLINE
  5
5B
100
AcDbEntity
  8
37
  6
CONTINUOUS
 62
     7
100
AcDbSpline
210
0.0
220
0.0
230
1.0
 70
     8
 71
     1
 72
     4
 73
     2
 74
     0
 42
0.0
 43
0.0
 12
0.9992235187155463
 22
0.0393999955040883
 32
0.0
 13
0.9992235187155463
 23
0.0393999955040883
 33
0.0
 40
0.0
 40
0.0
 40
1.0
 40
1.0
 10
0.0
 20
524.02494881889766
 30
0.0
 10
25.625
 20
525.03535826771656
 30
0.0
  0
SPLINE
  5
5C
100
AcDbEntity
  8
37
  6
CONTINUOUS
 62
     7
100
AcDbSpline
210
0.0
220
0.0
230
1.0
 70
     8
 71
     1
 72
     4
 73
     2
 74
     0
 42
0.0
 43
0.0
 12
0.9991610780461804
 22
0.0409529012109593
 32
0.0
 13
0.9991610780461804
 23
0.0409529012109593
 33
0.0
 40
0.0
 40
0.0
 40
1.0
 40
1.0
 10
0.0
 20
523.84636220472441
 30
0.0
 10
25.625
 20
524.89666141732278
 30
0.0
  0
SPLINE
  5
5D
100
AcDbEntity
  8
37
  6
CONTINUOUS
 62
     7
100
AcDbSpline
210
0.0
220
0.0
230
1.0
 70
     8
 71
     1
 72
     4
 73
     2
 74
     0
 42
0.0
 43
0.0
 12
0.9991233980802422
 22
0.0418620999065979
 32
0.0
 13
0.9991233980802422
 23
0.0418620999065979
 33
0.0
 40
0.0
 40
0.0
 40
1.0
 40
1.0
 10
0.0
 20
523.60453149606292
 30
0.0
 10
25.625
 20
524.6781889763779
 30
0.0
  0
SPLINE
  5
5E
100
AcDbEntity
  8
37
  6
CONTINUOUS
 62
     7
100
AcDbSpline
210
0.0
220
0.0
230
1.0
 70
     8
 71
     1
 72
     4
 73
     2
 74
     0
 42
0.0
 43
0.0
 12
0.9991456245888898
 22
0.0413282090693205
 32
0.0
 13
0.9991456245888898
 23
0.0413282090693205
 33
0.0
 40
0.0
 40
0.0
 40
1.0
 40
1.0
 10
0.0
 20
523.28549999999996
 30
0.0
 10
25.625
 20
524.34544094488183
 30
0.0
  0
SPLINE
  5
5F
100
AcDbEntity
  8
37
  6
CONTINUOUS
 62
     7
100
AcDbSpline
210
0.0
220
0.0
230
1.0
 70
     8
 71
     1
 72
     4
 73
     2
 74
     0
 42
0.0
 43
0.0
 12
0.9992372979925678
 22
0.0390489731044515
 32
0.0
 13
0.9992372979925678
 23
0.0390489731044515
 33
0.0
 40
0.0
 40
0.0
 40
1.0
 40
1.0
 10
0.0
 20
522.86290944881887
 30
0.0
 10
25.625
 20
523.86430314960626
 30
0.0
  0
SPLINE
  5
60
100
AcDbEntity
  8
37
  6
CONTINUOUS
 62
     7
100
AcDbSpline
210
0.0
220
0.0
230
1.0
 70
     8
 71
     1
 72
     4
 73
     2
 74
     0
 42
0.0
 43
0.0
 12
0.9994149015323847
 22
0.0342031372101132
 32
0.0
 13
0.9994149015323847
 23
0.0342031372101132
 33
0.0
 40
0.0
 40
0.0
 40
1.0
 40
1.0
 10
0.0
 20
522.29824015748034
 30
0.0
 10
25.625
 20
523.17520866141729
 30
0.0
  0
SPLINE
  5
61
100
AcDbEntity
  8
37
  6
CONTINUOUS
 62
     7
100
AcDbSpline
210
0.0
220
0.0
230
1.0
 70
     8
 71
     1
 72
     4
 73
     2
 74
     0
 42
0.0
 43
0.0
 12
0.9996849226763875
 22
0.025100903838407
 32
0.0
 13
0.9996849226763875
 23
0.025100903838407
 33
0.0
 40
0.0
 40
0.0
 40
1.0
 40
1.0
 10
0.0
 20
521.489937007874
 30
0.0
 10
25.625
 20
522.13335039370077
 30
0.0
  0
SPLINE
  5
62
100
AcDbEntity
  8
37
  6
CONTINUOUS
 62
     7
100
AcDbSpline
210
0.0
220
0.0
230
1.0
 70
     8
 71
     1
 72
     4
 73
     2
 74
     0
 42
0.0
 43
0.0
 12
0.9999109904486161
 22
0.0133420830482939
 32
0.0
 13
0.9999109904486161
 23
0.0133420830482939
 33
0.0
 40
0.0
 40
0.0
 40
1.0
 40
1.0
 10
0.0
 20
520.23203543307079
 30
0.0
 10
25.624996062992139
 20
520.57395669291338
 30
0.0
  0
SPLINE
  5
63
100
AcDbEntity
  8
37
  6
CONTINUOUS
 62
     7
100
AcDbSpline
210
0.0
220
0.0
230
1.0
 70
     8
 71
     1
 72
     4
 73
     2
 74
     0
 42
0.0
 43
0.0
 12
0.9999999999999882
 22
-0.0000001536394003
 32
0.0
 13
0.9999999999999882
 23
-0.0000001536394003
 33
0.0
 40
0.0
 40
0.0
 40
1.0
 40
1.0
 10
0.0
 20
518.32967716535427
 30
0.0
 10
25.624988188976388
 20
518.32967322834645
 30
0.0
  0
SPLINE
  5
64
100
AcDbEntity
  8
37
  6
CONTINUOUS
 62
     7
100
AcDbSpline
210
0.0
220
0.0
230
1.0
 70
     8
 71
     3
 72
    17
 73
    13
 74
     0
 42
0.0
 43
0.0
 12
0.0
 22
-1.0
 32
0.0
 13
0.0
 23
-1.0
 33
0.0
 40
0.0
 40
0.0
 40
0.0
 40
0.0
 40
0.0849354411870872
 40
0.2527569505631723
 40
0.2778580334400097
 40
0.470691013834761
 40
0.5395762592272723
 40
0.6616716625456101
 40
0.7291826204067016
 40
0.7975897671643597
 40
0.8024309975106414
 40
1.0
 40
1.0
 40
1.0
 40
1.0
 10
0.0
 20
524.33116535433066
 30
0.0
 10
0.0
 20
524.32426377952754
 30
0.0
 10
0.0
 20
524.29370866141733
 30
0.0
 10
0.0
 20
524.21621259842516
 30
0.0
 10
0.0
 20
524.03882677165348
 30
0.0
 10
0.0
 20
523.84538976377951
 30
0.0
 10
0.0
 20
523.41320078740159
 30
0.0
 10
0.0
 20
523.02387795275592
 30
0.0
 10
0.0
 20
522.47177559055115
 30
0.0
 10
0.0
 20
522.09233464566921
 30
0.0
 10
0.0
 20
521.18801574803149
 30
0.0
 10
0.0
 20
520.13854724409441
 30
0.0
 10
0.0
 20
518.32967716535427
 30
0.0
  0
SPLINE
  5
65
100
AcDbEntity
  8
37
  6
CONTINUOUS
 62
     7
100
AcDbSpline
210
0.0
220
0.0
230
1.0
 70
     8
 71
     3
 72
    17
 73
    13
 74
     0
 42
0.0
 43
0.0
 12
-0.0000000000030904
 22
-1.0
 32
0.0
 13
-0.0000020204183485
 23
-0.999999999997959
 33
0.0
 40
0.0
 40
0.0
 40
0.0
 40
0.0
 40
0.0849354411870872
 40
0.2527569505631723
 40
0.2778580334400097
 40
0.470691013834761
 40
0.5395762592272723
 40
0.6616716625456101
 40
0.7291826204067016
 40
0.7975897671643597
 40
0.8024309975106414
 40
1.0
 40
1.0
 40
1.0
 40
1.0
 10
12.8125
 20
524.80011023622046
 30
0.0
 10
12.8125
 20
524.79953543307079
 30
0.0
 10
12.8125
 20
524.77407086614176
 30
0.0
 10
12.8125
 20
524.69554330708661
 30
0.0
 10
12.8125
 20
524.54141338582679
 30
0.0
 10
12.8125
 20
524.37962204724408
 30
0.0
 10
12.8125
 20
523.95311023622048
 30
0.0
 10
12.8125
 20
523.53943700787397
 30
0.0
 10
12.8125
 20
522.93885826771645
 30
0.0
 10
12.8125
 20
522.50044094488192
 30
0.0
 10
12.8125
 20
521.46373622047247
 30
0.0
 10
12.8125
 20
520.27828740157474
 30
0.0
 10
12.812496062992125
 20
518.32967716535427
 30
0.0
  0
SPLINE
  5
66
100
AcDbEntity
  8
37
  6
CONTINUOUS
 62
     7
100
AcDbSpline
210
0.0
220
0.0
230
1.0
 70
     8
 71
     3
 72
    17
 73
    13
 74
     0
 42
0.0
 43
0.0
 12
-0.0000000000006181
 22
1.0
 32
0.0
 13
-0.0000056556607457
 23
-0.9999999999840068
 33
0.0
 40
0.0
 40
0.0
 40
0.0
 40
0.0
 40
0.0849354411870872
 40
0.2527569505631723
 40
0.2778580334400097
 40
0.470691013834761
 40
0.5395762592272723
 40
0.6616716625456101
 40
0.7291826204067016
 40
0.7975897671643597
 40
0.8024309975106414
 40
1.0
 40
1.0
 40
1.0
 40
1.0
 10
25.625
 20
525.26905511811026
 30
0.0
 10
25.625
 20
525.27480314960633
 30
0.0
 10
25.625
 20
525.254437007874
 30
0.0
 10
25.625
 20
525.17487007874013
 30
0.0
 10
25.625
 20
525.04399999999998
 30
0.0
 10
25.625
 20
524.91385039370073
 30
0.0
 10
25.625
 20
524.49301968503937
 30
0.0
 10
25.625
 20
524.05499606299213
 30
0.0
 10
25.625
 20
523.40594094488188
 30
0.0
 10
25.625
 20
522.90854330708657
 30
0.0
 10
25.625
 20
521.73945669291334
 30
0.0
 10
25.625
 20
520.41802755905508
 30
0.0
 10
25.624988188976388
 20
518.32967322834645
 30
0.0
  0
ARC
  5
68
100
AcDbEntity
  8
33
  6
CONTINUOUS
 62
     7
100
AcDbCircle
 10
51.028119
 20
472.001315
 30
0.0
 40
62.77038
210
0.0
220
0.0
230
1.0
100
AcDbArc
 50
81.801703
 51
122.341264
  0
LINE
  5
6A
100
AcDbEntity
  8
2
  6
CONTINUOUS
 62
     7
100
AcDbLine
 10
0.0
 20
518.329677
 30
0.0
 11
15.933417
 21
518.329677
 31
0.0
  0
LINE
  5
6B
100
AcDbEntity
  8
2
  6
CONTINUOUS
 62
     7
100
AcDbLine
 10
0.0
 20
518.329677
 30
0.0
 11
0.0
 21
519.003618
 31
0.0
  0
LINE
  5
6C
100
AcDbEntity
  8
2
  6
CONTINUOUS
 62
     7
100
AcDbLine
 10
1.0
 20
518.329677
 30
0.0
 11
1.0
 21
519.003618
 31
0.0
  0
LINE
  5
6D
100
AcDbEntity
  8
2
  6
CONTINUOUS
 62
     7
100
AcDbLine
 10
2.0
 20
518.329677
 30
0.0
 11
2.0
 21
519.003618
 31
0.0
  0
LINE
  5
6E
100
AcDbEntity
  8
2
  6
CONTINUOUS
 62
     7
100
AcDbLine
 10
3.0
 20
518.329677
 30
0.0
 11
3.0
 21
519.003618
 31
0.0
  0
LINE
  5
6F
100
AcDbEntity
  8
2
  6
CONTINUOUS
 62
     7
100
AcDbLine
 10
4.0
 20
518.329677
 30
0.0
 11
4.0
 21
519.003618
 31
0.0
  0
LINE
  5
70
100
AcDbEntity
  8
2
  6
CONTINUOUS
 62
     7
100
AcDbLine
 10
6.0
 20
518.329677
 30
0.0
 11
6.0
 21
519.003618
 31
0.0
  0
LINE
  5
71
100
AcDbEntity
  8
2
  6
CONTINUOUS
 62
     7
100
AcDbLine
 10
7.0
 20
518.329677
 30
0.0
 11
7.0
 21
519.003618
 31
0.0
  0
LINE
  5
72
100
AcDbEntity
  8
2
  6
CONTINUOUS
 62
     7
100
AcDbLine
 10
8.0
 20
518.329677
 30
0.0
 11
8.0
 21
519.003618
 31
0.0
  0
LINE
  5
73
100
AcDbEntity
  8
2
  6
CONTINUOUS
 62
     7
100
AcDbLine
 10
11.0
 20
518.329677
 30
0.0
 11
11.0
 21
519.003618
 31
0.0
  0
LINE
  5
74
100
AcDbEntity
  8
2
  6
CONTINUOUS
 62
     7
100
AcDbLine
 10
12.0
 20
518.329677
 30
0.0
 11
12.0
 21
519.003618
 31
0.0
  0
LINE
  5
75
100
AcDbEntity
  8
2
  6
CONTINUOUS
 62
     7
100
AcDbLine
 10
12.9625
 20
518.329677
 30
0.0
 11
12.9625
 21
519.003618
 31
0.0
  0
LINE
  5
76
100
AcDbEntity
  8
2
  6
CONTINUOUS
 62
     7
100
AcDbLine
 10
16.0
 20
518.329677
 30
0.0
 11
16.0
 21
519.003618
 31
0.0
  0
LINE
  5
77
100
AcDbEntity
  8
2
  6
CONTINUOUS
 62
     7
100
AcDbLine
 10
17.0
 20
518.329677
 30
0.0
 11
17.0
 21
519.003618
 31
0.0
  0
LINE
  5
78
100
AcDbEntity
  8
2
  6
CONTINUOUS
 62
     7
100
AcDbLine
 10
18.0
 20
518.329677
 30
0.0
 11
18.0
 21
519.003618
 31
0.0
  0
LINE
  5
79
100
AcDbEntity
  8
2
  6
CONTINUOUS
 62
     7
100
AcDbLine
 10
19.0
 20
518.329677
 30
0.0
 11
19.0
 21
519.003618
 31
0.0
  0
LINE
  5
7A
100
AcDbEntity
  8
2
  6
CONTINUOUS
 62
     7
100
AcDbLine
 10
21.0
 20
518.329677
 30
0.0
 11
21.0
 21
519.003618
 31
0.0
  0
LINE
  5
7B
100
AcDbEntity
  8
2
  6
CONTINUOUS
 62
     7
100
AcDbLine
 10
22.0
 20
518.329677
 30
0.0
 11
22.0
 21
519.003618
 31
0.0
  0
LINE
  5
7C
100
AcDbEntity
  8
2
  6
CONTINUOUS
 62
     7
100
AcDbLine
 10
23.0
 20
518.329677
 30
0.0
 11
23.0
 21
519.003618
 31
0.0
  0
LINE
  5
7D
100
AcDbEntity
  8
2
  6
CONTINUOUS
 62
     7
100
AcDbLine
 10
24.0
 20
518.329677
 30
0.0
 11
24.0
 21
519.003618
 31
0.0
  0
LINE
  5
7E
100
AcDbEntity
  8
2
  6
CONTINUOUS
 62
     7
100
AcDbLine
 10
9.0
 20
518.329677
 30
0.0
 11
9.0
 21
519.115413
 31
0.0
  0
LINE
  5
7F
100
AcDbEntity
  8
2
  6
CONTINUOUS
 62
     7
100
AcDbLine
 10
14.0
 20
518.329677
 30
0.0
 11
14.0
 21
519.068756
 31
0.0
  0
LINE
  5
80
100
AcDbEntity
  8
1
  6
CONTINUOUS
 62
     7
100
AcDbLine
 10
19.000047
 20
518.329681
 30
0.0
 11
19.000047
 21
523.004543
 31
0.0
  0
LINE
  5
81
100
AcDbEntity
  8
1
  6
CONTINUOUS
 62
     7
100
AcDbLine
 10
19.000047
 20
518.329681
 30
0.0
 11
19.000047
 21
523.004543
 31
0.0
  0
POINT
  5
82
100
AcDbEntity
  8
62
  6
DASHDOT
 62
     7
100
AcDbPoint
 10
13.689504
 20
522.629543
 30
0.0
  0
SPLINE
  5
84
100
AcDbEntity
  8
3
  6
CONTINUOUS
 62
     7
100
AcDbSpline
210
0.0
220
0.0
230
1.0
 70
     8
 71
     3
 72
    76
 73
    72
 74
     0
 42
0.0
 43
0.0
 12
0.0
 22
-1.0
 32
0.0
 13
0.0
 23
-1.0
 33
0.0
 40
0.0
 40
0.0
 40
0.0
 40
0.0
 40
0.0021380730914595
 40
0.0176278255030642
 40
0.0182167966934931
 40
0.0188052007084737
 40
0.0339134624385803
 40
0.0490980814439701
 40
0.0643751980105299
 40
0.0797467339223934
 40
0.0951414206508274
 40
0.1105097267360006
 40
0.12585585011442
 40
0.1411826699698263
 40
0.156492157912111
 40
0.17178561453325
 40
0.1870638156249485
 40
0.2023270880814302
 40
0.2175753466866796
 40
0.2328080871295222
 40
0.2480255641266823
 40
0.2632462821264036
 40
0.2784756474562342
 40
0.2937142487120416
 40
0.3089627038263542
 40
0.3242214770634759
 40
0.3394908506141467
 40
0.3547709036407857
 40
0.3700615066895548
 40
0.3853623291409399
 40
0.4006728550422345
 40
0.415992414772507
 40
0.4313202199671977
 40
0.4466554021680054
 40
0.4619922691313514
 40
0.4773185488196642
 40
0.4926352316945024
 40
0.5079431470986191
 40
0.5232429287970266
 40
0.5385336710785207
 40
0.553814842157911
 40
0.5690867773113245
 40
0.5843496651315827
 40
0.5996035605667176
 40
0.6148483942331972
 40
0.6300839728815872
 40
0.6453099803278735
 40
0.6605274992345495
 40
0.6757460551689127
 40
0.6909671526825834
 40
0.7061916504549755
 40
0.7214205445355831
 40
0.7366564132909553
 40
0.7519021414927682
 40
0.7671598176318965
 40
0.7824314729228762
 40
0.7977138617065334
 40
0.8129896003813435
 40
0.8282615383287247
 40
0.8435345826873251
 40
0.8588142012519828
 40
0.8741061747419211
 40
0.8894160417324938
 40
0.9047482762973514
 40
0.9201054391079142
 40
0.9354876414572297
 40
0.950892603001973
 40
0.9663162748172489
 40
0.9817537530240388
 40
0.9972001272240654
 40
1.0
 40
1.0
 40
1.0
 40
1.0
 10
12.9375
 20
524.45027165354327
 30
0.0
 10
12.9375
 20
524.45026771653545
 30
0.0
 10
12.9375
 20
524.45017322834644
 30
0.0
 10
12.9375
 20
524.44969685039371
 30
0.0
 10
12.9375
 20
524.44890944881888
 30
0.0
 10
12.9375
 20
524.44811811023624
 30
0.0
 10
12.9375
 20
524.44598425196853
 30
0.0
 10
12.9375
 20
524.4410118110236
 30
0.0
 10
12.9375
 20
524.43434251968506
 30
0.0
 10
12.9375
 20
524.42632677165352
 30
0.0
 10
12.9375
 20
524.41735039370076
 30
0.0
 10
12.9375
 20
524.40748031496059
 30
0.0
 10
12.9375
 20
524.39676771653535
 30
0.0
 10
12.9375
 20
524.38524015748033
 30
0.0
 10
12.9375
 20
524.37289370078736
 30
0.0
 10
12.9375
 20
524.3597322834645
 30
0.0
 10
12.9375
 20
524.34572834645667
 30
0.0
 10
12.9375
 20
524.33086220472433
 30
0.0
 10
12.9375
 20
524.3150866141732
 30
0.0
 10
12.9375
 20
524.29833858267716
 30
0.0
 10
12.9375
 20
524.28053937007871
 30
0.0
 10
12.9375
 20
524.26156299212596
 30
0.0
 10
12.9375
 20
524.24124803149607
 30
0.0
 10
12.9375
 20
524.21942913385828
 30
0.0
 10
12.9375
 20
524.19594488188977
 30
0.0
 10
12.9375
 20
524.17064960629921
 30
0.0
 10
12.9375
 20
524.14341338582676
 30
0.0
 10
12.9375
 20
524.11411811023618
 30
0.0
 10
12.9375
 20
524.08267716535431
 30
0.0
 10
12.9375
 20
524.04903149606298
 30
0.0
 10
12.9375
 20
524.01313385826768
 30
0.0
 10
12.9375
 20
523.97498425196852
 30
0.0
 10
12.9375
 20
523.93459055118103
 30
0.0
 10
12.9375
 20
523.89199999999994
 30
0.0
 10
12.9375
 20
523.84728740157482
 30
0.0
 10
12.9375
 20
523.80037795275587
 30
0.0
 10
12.9375
 20
523.7511456692913
 30
0.0
 10
12.9375
 20
523.69944881889762
 30
0.0
 10
12.9375
 20
523.64515354330706
 30
0.0
 10
12.9375
 20
523.58809055118104
 30
0.0
 10
12.9375
 20
523.52800000000002
 30
0.0
 10
12.9375
 20
523.46460629921262
 30
0.0
 10
12.9375
 20
523.39761023622043
 30
0.0
 10
12.9375
 20
523.32668110236216
 30
0.0
 10
12.9375
 20
523.25144881889764
 30
0.0
 10
12.9375
 20
523.17151574803142
 30
0.0
 10
12.9375
 20
523.08641732283456
 30
0.0
 10
12.9375
 20
522.99562992125982
 30
0.0
 10
12.9375
 20
522.89849212598426
 30
0.0
 10
12.9375
 20
522.79426771653539
 30
0.0
 10
12.9375
 20
522.68224015748024
 30
0.0
 10
12.9375
 20
522.56175196850393
 30
0.0
 10
12.9375
 20
522.43216141732285
 30
0.0
 10
12.9375
 20
522.29242125984251
 30
0.0
 10
12.9375
 20
522.14157874015746
 30
0.0
 10
12.9375
 20
521.9788070866141
 30
0.0
 10
12.9375
 20
521.80405905511805
 30
0.0
 10
12.9375
 20
521.61689370078739
 30
0.0
 10
12.9375
 20
521.41657086614168
 30
0.0
 10
12.9375
 20
521.20246062992123
 30
0.0
 10
12.9375
 20
520.97420866141726
 30
0.0
 10
12.9375
 20
520.73180708661414
 30
0.0
 10
12.9375
 20
520.47562598425191
 30
0.0
 10
12.9375
 20
520.206468503937
 30
0.0
 10
12.9375
 20
519.92551968503938
 30
0.0
 10
12.9375
 20
519.63431102362199
 30
0.0
 10
12.9375
 20
519.33462204724401
 30
0.0
 10
12.9375
 20
519.02829921259843
 30
0.0
 10
12.9375
 20
518.71719685039363
 30
0.0
 10
12.9375
 20
518.4905787401575
 30
0.0
 10
12.9375
 20
518.36534251968499
 30
0.0
 10
12.9375
 20
518.34600393700782
 30
0.0
  0
SPLINE
  5
85
100
AcDbEntity
  8
3
  6
CONTINUOUS
 62
     7
100
AcDbSpline
210
0.0
220
0.0
230
1.0
 70
     8
 71
     3
 72
    75
 73
    71
 74
     0
 42
0.0
 43
0.0
 12
-0.0000000001127987
 22
-1.0
 32
0.0
 13
-0.0000000000000186
 23
-1.0
 33
0.0
 40
0.0
 40
0.0
 40
0.0
 40
0.0
 40
0.006413996688283
 40
0.0218870411728914
 40
0.0224759853549655
 40
0.0230644163783008
 40
0.0381920729010329
 40
0.0534016588020146
 40
0.0687060254014591
 40
0.0840981775355051
 40
0.0994848870204226
 40
0.1148465686081194
 40
0.1301869922923795
 40
0.1455087485469453
 40
0.1608136008311127
 40
0.1761026895493747
 40
0.1913766587112922
 40
0.2066357164674605
 40
0.2218796611865422
 40
0.2371078646914605
 40
0.2523236923163402
 40
0.2675467865856117
 40
0.2827786902351206
 40
0.2980200174721051
 40
0.3132713466478844
 40
0.3285330935979882
 40
0.3438054837024796
 40
0.359088538381778
 40
0.3743820699743843
 40
0.3896856919814301
 40
0.4049988428154024
 40
0.4203208151368056
 40
0.4356507935727252
 40
0.4509878295711185
 40
0.4663216329488538
 40
0.4816451056309254
 40
0.4969592362162467
 40
0.5122647995652001
 40
0.5275622678583313
 40
0.5428502632038902
 40
0.5581287981747318
 40
0.5733981647404833
 40
0.5886585123784182
 40
0.6039098606463103
 40
0.6191521047703699
 40
0.6343850175078889
 40
0.649608247284595
 40
0.6648254337091117
 40
0.680044627599439
 40
0.6952665926400882
 40
0.7104922233663928
 40
0.7257226522666042
 40
0.7409610975258802
 40
0.7562099871021742
 40
0.7714714127459896
 40
0.7867473036920406
 40
0.8020283523025124
 40
0.8173025542950735
 40
0.8325742808322303
 40
0.8478486071563552
 40
0.8631311258595116
 40
0.8784276199892291
 40
0.8937434181076212
 40
0.9090825332836633
 40
0.9244468654154087
 40
0.9398358175250868
 40
0.9552465276584246
 40
0.9706746092860934
 40
0.9861150798323168
 40
1.0
 40
1.0
 40
1.0
 40
1.0
 10
12.9375
 20
524.45027165354327
 30
0.0
 10
12.9375
 20
524.45025590551177
 30
0.0
 10
12.9375
 20
524.45002755905512
 30
0.0
 10
12.9375
 20
524.44920078740154
 30
0.0
 10
12.9375
 20
524.44822834645663
 30
0.0
 10
12.9375
 20
524.44725196850391
 30
0.0
 10
12.9375
 20
524.44476377952753
 30
0.0
 10
12.9375
 20
524.43929527559055
 30
0.0
 10
12.9375
 20
524.43219291338585
 30
0.0
 10
12.9375
 20
524.42388188976372
 30
0.0
 10
12.9375
 20
524.41465354330705
 30
0.0
 10
12.9375
 20
524.40453937007874
 30
0.0
 10
12.9375
 20
524.39359448818891
 30
0.0
 10
12.9375
 20
524.3818346456693
 30
0.0
 10
12.9375
 20
524.36925984251968
 30
0.0
 10
12.9375
 20
524.35586220472442
 30
0.0
 10
12.9375
 20
524.34161811023614
 30
0.0
 10
12.9375
 20
524.32650000000001
 30
0.0
 10
12.9375
 20
524.31045669291336
 30
0.0
 10
12.9375
 20
524.29342125984249
 30
0.0
 10
12.9375
 20
524.27530708661413
 30
0.0
 10
12.9375
 20
524.25596850393697
 30
0.0
 10
12.9375
 20
524.23524409448817
 30
0.0
 10
12.9375
 20
524.21296850393696
 30
0.0
 10
12.9375
 20
524.18899212598421
 30
0.0
 10
12.9375
 20
524.16316141732284
 30
0.0
 10
12.9375
 20
524.13535433070865
 30
0.0
 10
12.9375
 20
524.10545669291332
 30
0.0
 10
12.9375
 20
524.07340157480314
 30
0.0
 10
12.9375
 20
524.03912204724406
 30
0.0
 10
12.9375
 20
524.0025866141732
 30
0.0
 10
12.9375
 20
523.96380314960629
 30
0.0
 10
12.9375
 20
523.92277952755899
 30
0.0
 10
12.9375
 20
523.87958661417315
 30
0.0
 10
12.9375
 20
523.83426771653535
 30
0.0
 10
12.9375
 20
523.78671653543302
 30
0.0
 10
12.9375
 20
523.73680314960632
 30
0.0
 10
12.9375
 20
523.68438582677163
 30
0.0
 10
12.9375
 20
523.62933070866143
 30
0.0
 10
12.9375
 20
523.57143700787401
 30
0.0
 10
12.9375
 20
523.51044488188973
 30
0.0
 10
12.9375
 20
523.44606692913385
 30
0.0
 10
12.9375
 20
523.37799212598418
 30
0.0
 10
12.9375
 20
523.3058858267716
 30
0.0
 10
12.9375
 20
523.22937007874009
 30
0.0
 10
12.9375
 20
523.14802755905509
 30
0.0
 10
12.9375
 20
523.06137795275583
 30
0.0
 10
12.9375
 20
522.96887007874011
 30
0.0
 10
12.9375
 20
522.86980314960624
 30
0.0
 10
12.9375
 20
522.76345275590552
 30
0.0
 10
12.9375
 20
522.64908661417326
 30
0.0
 10
12.9375
 20
522.52611811023621
 30
0.0
 10
12.9375
 20
522.39377165354324
 30
0.0
 10
12.9375
 20
522.25098818897641
 30
0.0
 10
12.9375
 20
522.09683858267715
 30
0.0
 10
12.9375
 20
521.93067322834645
 30
0.0
 10
12.9375
 20
521.75249212598419
 30
0.0
 10
12.9375
 20
521.5616850393701
 30
0.0
 10
12.9375
 20
521.35752755905514
 30
0.0
 10
12.9375
 20
521.13944488188974
 30
0.0
 10
12.9375
 20
520.90717716535426
 30
0.0
 10
12.9375
 20
520.66082677165355
 30
0.0
 10
12.9375
 20
520.40088582677163
 30
0.0
 10
12.9375
 20
520.1282598425197
 30
0.0
 10
12.9375
 20
519.8442440944882
 30
0.0
 10
12.9375
 20
519.55046456692912
 30
0.0
 10
12.9375
 20
519.24868897637793
 30
0.0
 10
12.9375
 20
518.94092125984253
 30
0.0
 10
12.9375
 20
518.63924015748034
 30
0.0
 10
12.9375
 20
518.44231889763773
 30
0.0
 10
12.9375
 20
518.34657086614175
 30
0.0
  0
INSERT
  5
8C
100
AcDbEntity
  8
62
  6
CONTINUOUS
 62
     7
100
AcDbBlockReference
  2
*M3
 10
68.0
 20
524.929677
 30
0.0
210
0.0
220
0.0
230
1.0
  0
INSERT
  5
93
100
AcDbEntity
  8
62
  6
CONTINUOUS
 62
     7
100
AcDbBlockReference
  2
*M4
 10
70.0
 20
525.029677
 30
0.0
210
0.0
220
0.0
230
1.0
  0
LINE
  5
95
100
AcDbEntity
  8
5
  6
CONTINUOUS
 62
     7
100
AcDbLine
 10
65.402787
 20
524.952654
 30
0.0
 11
71.531409
 21
526.250508
 31
0.0
  0
ARC
  5
96
100
AcDbEntity
  8
2
  6
DASHDOT
 62
     7
100
AcDbCircle
 10
66.892567
 20
524.16715
 30
0.0
 40
3.0
210
0.0
220
0.0
230
1.0
100
AcDbArc
 50
202.801247
 51
28.545053
  0
ARC
  5
97
100
AcDbEntity
  8
2
  6
CONTINUOUS
 62
     7
100
AcDbCircle
 10
66.892567
 20
524.16715
 30
0.0
 40
3.375
210
0.0
220
0.0
230
1.0
100
AcDbArc
 50
202.801247
 51
28.545053
  0
ARC
  5
98
100
AcDbEntity
  8
2
  6
CONTINUOUS
 62
     7
100
AcDbCircle
 10
66.892567
 20
524.16715
 30
0.0
 40
2.625
210
0.0
220
0.0
230
1.0
100
AcDbArc
 50
202.801247
 51
28.545053
  0
ARC
  5
99
100
AcDbEntity
  8
62
  6
CONTINUOUS
 62
     7
100
AcDbCircle
 10
64.127002
 20
523.254543
 30
0.0
 40
0.375
210
0.0
220
0.0
230
1.0
100
AcDbArc
 50
22.801411
 51
202.801494
  0
LINE
  5
9A
100
AcDbEntity
  8
62
  6
CONTINUOUS
 62
     7
100
AcDbLine
 10
63.683878
 20
523.250791
 30
0.0
 11
63.683878
 21
524.475201
 31
0.0
  0
LINE
  5
9B
100
AcDbEntity
  8
62
  6
CONTINUOUS
 62
     7
100
AcDbLine
 10
63.558878
 20
523.250791
 30
0.0
 11
63.558878
 21
524.475201
 31
0.0
  0
LINE
  5
9C
100
AcDbEntity
  8
62
  6
CONTINUOUS
 62
     7
100
AcDbLine
 10
64.558878
 20
523.250791
 30
0.0
 11
64.558878
 21
524.475201
 31
0.0
  0
POINT
  5
9D
100
AcDbEntity
  8
62
  6
CONTINUOUS
 62
     7
100
AcDbPoint
 10
64.127004
 20
523.004543
 30
0.0
  0
LINE
  5
9F
100
AcDbEntity
  8
6
  6
CONTINUOUS
 62
     7
100
AcDbLine
 10
12.937469
 20
520.999969
 30
0.0
 11
12.937469
 21
522.999969
 31
0.0
  0
LINE
  5
A0
100
AcDbEntity
  8
3
  6
CONTINUOUS
 62
     7
100
AcDbLine
 10
13.5
 20
518.346004
 30
0.0
 11
13.5
 21
518.346571
 31
0.0
  0
LINE
  5
A1
100
AcDbEntity
  8
3
  6
CONTINUOUS
 62
     7
100
AcDbLine
 10
13.5
 20
515.846024
 30
0.0
 11
13.5
 21
515.846551
 31
0.0
  0
LINE
  5
A2
100
AcDbEntity
  8
2
  6
CONTINUOUS
 62
     7
100
AcDbLine
 10
10.0
 20
518.329677
 30
0.0
 11
10.0
 21
519.645063
 31
0.0
  0
LINE
  5
A3
100
AcDbEntity
  8
2
  6
CONTINUOUS
 62
     7
100
AcDbLine
 10
15.0
 20
518.329677
 30
0.0
 11
15.0
 21
519.796094
 31
0.0
  0
LINE
  5
A4
100
AcDbEntity
  8
2
  6
CONTINUOUS
 62
     7
100
AcDbLine
 10
20.0
 20
518.329677
 30
0.0
 11
20.0
 21
519.846441
 31
0.0
  0
LINE
  5
A5
100
AcDbEntity
  8
3
  6
DASHDOT
 62
     7
100
AcDbLine
 10
12.9375
 20
513.681327
 30
0.0
 11
12.9375
 21
525.553181
 31
0.0
  0
LINE
  5
A7
100
AcDbEntity
  8
45
  6
DASHDOT
 62
     7
100
AcDbLine
 10
14.027004
 20
519.637669
 30
0.0
 11
14.027004
 21
523.742165
 31
0.0
  0
LINE
  5
A8
100
AcDbEntity
  8
45
  6
DASHDOT
 62
     7
100
AcDbLine
 10
13.502004
 20
520.508799
 30
0.0
 11
13.502004
 21
523.742169
 31
0.0
  0
LINE
  5
A9
100
AcDbEntity
  8
45
  6
CONTINUOUS
 62
     7
100
AcDbLine
 10
13.502004
 20
523.742169
 30
0.0
 11
13.502004
 21
523.918453
 31
0.0
  0
POINT
  5
AA
100
AcDbEntity
  8
45
  6
CONTINUOUS
 62
     7
100
AcDbPoint
 10
14.027004
 20
519.855953
 30
0.0
  0
LINE
  5
AB
100
AcDbEntity
  8
45
  6
CONTINUOUS
 62
     7
100
AcDbLine
 10
14.027004
 20
519.855953
 30
0.0
 11
14.027004
 21
523.855953
 31
0.0
  0
LINE
  5
AC
100
AcDbEntity
  8
45
  6
CONTINUOUS
 62
     7
100
AcDbLine
 10
14.027004
 20
523.465205
 30
0.0
 11
14.027004
 21
519.855953
 31
0.0
  0
LINE
  5
AD
100
AcDbEntity
  8
45
  6
CONTINUOUS
 62
     7
100
AcDbLine
 10
13.502004
 20
523.855953
 30
0.0
 11
13.502004
 21
523.465205
 31
0.0
  0
LINE
  5
AE
100
AcDbEntity
  8
45
  6
DASHDOT
 62
     7
100
AcDbLine
 10
14.027004
 20
520.418453
 30
0.0
 11
14.027004
 21
523.004543
 31
0.0
  0
LINE
  5
AF
100
AcDbEntity
  8
45
  6
DASHDOT
 62
     7
100
AcDbLine
 10
14.027004
 20
520.418453
 30
0.0
 11
14.027004
 21
523.004543
 31
0.0
  0
INSERT
  5
BA
100
AcDbEntity
  8
45
  6
CONTINUOUS
 62
     7
100
AcDbBlockReference
  2
*M5
 10
14.027004
 20
520.418453
 30
0.0
210
0.0
220
0.0
230
1.0
  0
INSERT
  5
C5
100
AcDbEntity
  8
45
  6
CONTINUOUS
 62
     7
100
AcDbBlockReference
  2
*M6
 10
14.027004
 20
520.418453
 30
0.0
210
0.0
220
0.0
230
1.0
  0
LINE
  5
C6
100
AcDbEntity
  8
45
  6
DASHDOT
 62
     7
100
AcDbLine
 10
13.502004
 20
520.508799
 30
0.0
 11
13.502004
 21
523.742169
 31
0.0
  0
LINE
  5
C7
100
AcDbEntity
  8
45
  6
CONTINUOUS
 62
     7
100
AcDbLine
 10
13.502004
 20
523.742169
 30
0.0
 11
13.502004
 21
523.918453
 31
0.0
  0
POINT
  5
C8
100
AcDbEntity
  8
45
  6
CONTINUOUS
 62
     7
100
AcDbPoint
 10
14.027004
 20
519.855953
 30
0.0
  0
LINE
  5
C9
100
AcDbEntity
  8
45
  6
CONTINUOUS
 62
     7
100
AcDbLine
 10
14.027004
 20
519.855953
 30
0.0
 11
14.027004
 21
523.855953
 31
0.0
  0
LINE
  5
CA
100
AcDbEntity
  8
45
  6
CONTINUOUS
 62
     7
100
AcDbLine
 10
14.027004
 20
523.465205
 30
0.0
 11
14.027004
 21
519.855953
 31
0.0
  0
LINE
  5
CB
100
AcDbEntity
  8
45
  6
CONTINUOUS
 62
     7
100
AcDbLine
 10
13.502004
 20
523.855953
 30
0.0
 11
13.502004
 21
523.465205
 31
0.0
  0
LINE
  5
CC
100
AcDbEntity
  8
45
  6
DASHDOT
 62
     7
100
AcDbLine
 10
14.027004
 20
520.418453
 30
0.0
 11
14.027004
 21
523.004543
 31
0.0
  0
INSERT
  5
D7
100
AcDbEntity
  8
45
  6
CONTINUOUS
 62
     7
100
AcDbBlockReference
  2
*M7
 10
14.027004
 20
520.418453
 30
0.0
210
0.0
220
0.0
230
1.0
  0
INSERT
  5
E2
100
AcDbEntity
  8
45
  6
CONTINUOUS
 62
     7
100
AcDbBlockReference
  2
*M8
 10
14.027004
 20
520.418453
 30
0.0
210
0.0
220
0.0
230
1.0
  0
INSERT
  5
ED
100
AcDbEntity
  8
45
  6
CONTINUOUS
 62
     7
100
AcDbBlockReference
  2
*M9
 10
13.502004
 20
523.004543
 30
0.0
210
0.0
220
0.0
230
1.0
  0
INSERT
  5
F8
100
AcDbEntity
  8
45
  6
CONTINUOUS
 62
     7
100
AcDbBlockReference
  2
*M10
 10
13.502004
 20
523.004543
 30
0.0
210
0.0
220
0.0
230
1.0
  0
LINE
  5
F9
100
AcDbEntity
  8
3
  6
CONTINUOUS
 62
     7
100
AcDbLine
 10
13.5
 20
514.846024
 30
0.0
 11
13.5
 21
514.846551
 31
0.0
  0
CIRCLE
  5
FB
100
AcDbEntity
  8
4
  6
CONTINUOUS
 62
     7
100
AcDbCircle
 10
16.94863
 20
518.858646
 30
0.0
 40
0.125
210
0.0
220
0.0
230
1.0
  0
LINE
  5
FC
100
AcDbEntity
  8
6
  6
CONTINUOUS
 62
     7
100
AcDbLine
 10
8.117362
 20
526.945362
 30
0.0
 11
7.992362
 21
526.945362
 31
0.0
  0
LINE
  5
FD
100
AcDbEntity
  8
6
  6
CONTINUOUS
 62
     7
100
AcDbLine
 10
9.319402
 20
526.945362
 30
0.0
 11
9.194402
 21
526.945362
 31
0.0
  0
LINE
  5
FE
100
AcDbEntity
  8
6
  6
CONTINUOUS
 62
     7
100
AcDbLine
 10
12.937469
 20
521.749969
 30
0.0
 11
12.937469
 21
523.437496
 31
0.0
  0
LINE
  5
FF
100
AcDbEntity
  8
6
  6
CONTINUOUS
 62
     7
100
AcDbLine
 10
13.062469
 20
521.124969
 30
0.0
 11
13.062469
 21
523.097823
 31
0.0
  0
LINE
  5
100
100
AcDbEntity
  8
6
  6
CONTINUOUS
 62
     7
100
AcDbLine
 10
13.062469
 20
521.124969
 30
0.0
 11
12.937469
 21
521.124969
 31
0.0
  0
LINE
  5
101
100
AcDbEntity
  8
6
  6
CONTINUOUS
 62
     7
100
AcDbLine
 10
7.755457
 20
525.080886
 30
0.0
 11
7.630457
 21
525.080886
 31
0.0
  0
LINE
  5
103
100
AcDbEntity
  8
10
  6
CONTINUOUS
 62
     7
100
AcDbLine
 10
12.125
 20
518.329677
 30
0.0
 11
12.125
 21
524.797571
 31
0.0
  0
LINE
  5
104
100
AcDbEntity
  8
10
  6
CONTINUOUS
 62
     7
100
AcDbLine
 10
16.875
 20
523.769146
 30
0.0
 11
16.875
 21
529.331165
 31
0.0
  0
LINE
  5
105
100
AcDbEntity
  8
2
  6
CONTINUOUS
 62
     7
100
AcDbLine
 10
22.267378
 20
526.577768
 30
0.0
 11
15.5065
 21
524.960866
 31
0.0
  0
LINE
  5
106
100
AcDbEntity
  8
2
  6
CONTINUOUS
 62
     7
100
AcDbLine
 10
23.639067
 20
525.32115
 30
0.0
 11
16.878189
 21
523.704248
 31
0.0
  0
DIMENSION
  5
118
100
AcDbEntity
  8
4
  6
CONTINUOUS
 62
     7
100
AcDbDimension
  2
*D11
 10
0.0
 20
524.331165
 30
0.0
 11
6.054559
 21
524.206165
 31
0.0
 70
   160
  3
MSADIM
100
AcDbAlignedDimension
 13
12.9375
 23
525.553181
 33
0.0
 14
0.0
 24
524.331165
 34
0.0
100
AcDbRotatedDimension
  0
DIMENSION
  5
127
100
AcDbEntity
  8
4
  6
CONTINUOUS
 62
     7
100
AcDbDimension
  2
*D12
 10
0.0
 20
524.456165
 30
0.0
 11
5.83535
 21
524.331165
 31
0.0
 70
   160
  3
MSADIM
100
AcDbAlignedDimension
 13
12.125
 23
524.797571
 33
0.0
 14
0.0
 24
524.456165
 34
0.0
100
AcDbRotatedDimension
  0
DIMENSION
  5
136
100
AcDbEntity
  8
4
  6
CONTINUOUS
 62
     7
100
AcDbDimension
  2
*D13
 10
0.0
 20
524.456165
 30
0.0
 11
9.781091
 21
524.331165
 31
0.0
 70
   160
  3
MSADIM
100
AcDbAlignedDimension
 13
18.468878
 23
523.556677
 33
0.0
 14
0.0
 24
524.456165
 34
0.0
100
AcDbRotatedDimension
  0
DIMENSION
  5
145
100
AcDbEntity
  8
4
  6
CONTINUOUS
 62
     7
100
AcDbDimension
  2
*D14
 10
13.499969
 20
523.12413
 30
0.0
 11
6.208246
 21
522.99913
 31
0.0
 70
   160
 51
-180.0
  3
MSADIM
100
AcDbAlignedDimension
 13
0.0
 23
524.456165
 33
0.0
 14
13.499969
 24
523.12413
 34
0.0
 50
-180.0
100
AcDbRotatedDimension
  0
LINE
  5
146
100
AcDbEntity
  8
10
  6
CONTINUOUS
 62
     7
100
AcDbLine
 10
19.625
 20
523.769146
 30
0.0
 11
19.625
 21
529.331165
 31
0.0
  0
LINE
  5
147
100
AcDbEntity
  8
5
  6
CONTINUOUS
 62
     7
100
AcDbLine
 10
14.027004
 20
521.749654
 30
0.0
 11
14.027004
 21
523.437181
 31
0.0
  0
LINE
  5
148
100
AcDbEntity
  8
5
  6
CONTINUOUS
 62
     7
100
AcDbLine
 10
14.027004
 20
520.418453
 30
0.0
 11
14.027004
 21
523.004543
 31
0.0
  0
LINE
  5
149
100
AcDbEntity
  8
5
  6
CONTINUOUS
 62
     7
100
AcDbLine
 10
14.027004
 20
521.999654
 30
0.0
 11
14.027004
 21
523.187181
 31
0.0
  0
TEXT
  5
14A
100
AcDbEntity
  8
5
  6
CONTINUOUS
 62
     7
100
AcDbText
 10
14.064504
 20
523.710449
 30
0.0
 40
0.125
  1
8.88%%d
 41
0.0
  7
ROMANS
 72
     4
 11
14.064504
 21
523.772949
 31
0.0
210
0.0
220
0.0
230
1.0
100
AcDbText
  0
POINT
  5
14B
100
AcDbEntity
  8
5
  6
CONTINUOUS
 62
     7
100
AcDbPoint
 10
14.027004
 20
523.437181
 30
0.0
  0
POINT
  5
14C
100
AcDbEntity
  8
5
  6
CONTINUOUS
 62
     7
100
AcDbPoint
 10
14.027004
 20
521.749654
 30
0.0
  0
LINE
  5
14D
100
AcDbEntity
  8
5
  6
CONTINUOUS
 62
     7
100
AcDbLine
 10
14.027004
 20
521.749654
 30
0.0
 11
14.027004
 21
523.437181
 31
0.0
  0
DIMENSION
  5
15C
100
AcDbEntity
  8
5
  6
CONTINUOUS
 62
     7
100
AcDbDimension
  2
*D15
 10
14.386193
 20
523.192043
 30
0.0
 11
13.502002
 21
523.975181
 31
0.0
 70
   160
 51
-270.0
  3
MSADIM
100
AcDbAlignedDimension
 13
14.027004
 23
523.437181
 33
0.0
 14
13.502004
 24
523.192043
 34
0.0
 50
-270.0
100
AcDbRotatedDimension
  0
LINE
  5
15D
100
AcDbEntity
  8
5
  6
CONTINUOUS
 62
     7
100
AcDbLine
 10
14.027004
 20
523.187181
 30
0.0
 11
14.027004
 21
523.437181
 31
0.0
  0
LINE
  5
15E
100
AcDbEntity
  8
5
  6
CONTINUOUS
 62
     7
100
AcDbLine
 10
14.027004
 20
521.999654
 30
0.0
 11
14.027004
 21
521.749654
 31
0.0
  0
INSERT
  5
169
100
AcDbEntity
  8
45
  6
CONTINUOUS
 62
     7
100
AcDbBlockReference
  2
*M16
 10
13.502004
 20
522.182291
 30
0.0
210
0.0
220
0.0
230
1.0
  0
LINE
  5
16A
100
AcDbEntity
  8
5
  6
CONTINUOUS
 62
     7
100
AcDbLine
 10
13.502004
 20
522.276043
 30
0.0
 11
13.502004
 21
522.088539
 31
0.0
  0
DIMENSION
  5
179
100
AcDbEntity
  8
4
  6
CONTINUOUS
 62
     7
100
AcDbDimension
  2
*D17
 10
14.317894
 20
523.004543
 30
0.0
 11
13.502004
 21
523.067043
 31
0.0
 70
   160
 51
-270.0
  3
MSADIM
100
AcDbAlignedDimension
 13
14.027004
 23
523.437181
 33
0.0
 14
13.502004
 24
523.004543
 34
0.0
 50
-270.0
100
AcDbRotatedDimension
  0
LINE
  5
17A
100
AcDbEntity
  8
6
  6
CONTINUOUS
 62
     7
100
AcDbLine
 10
14.812469
 20
521.749969
 30
0.0
 11
14.812469
 21
523.437488
 31
0.0
  0
LINE
  5
17B
100
AcDbEntity
  8
2
  6
CONTINUOUS
 62
     7
100
AcDbLine
 10
13.689504
 20
523.004543
 30
0.0
 11
16.507697
 21
523.755795
 31
0.0
  0
ARC
  5
17C
100
AcDbEntity
  8
6
  6
CONTINUOUS
 62
     7
100
AcDbCircle
 10
13.687469
 20
522.624969
 30
0.0
 40
0.625
210
0.0
220
0.0
230
1.0
100
AcDbArc
 50
306.86795
 51
105.779958
  0
LINE
  5
17D
100
AcDbEntity
  8
6
  6
CONTINUOUS
 62
     7
100
AcDbLine
 10
13.062469
 20
523.097823
 30
0.0
 11
12.937469
 21
523.097823
 31
0.0
  0
LINE
  5
17E
100
AcDbEntity
  8
6
  6
CONTINUOUS
 62
     7
100
AcDbLine
 10
13.517504
 20
523.226413
 30
0.0
 11
13.062469
 21
523.097823
 31
0.0
  0
CIRCLE
  5
17F
100
AcDbEntity
  8
6
  6
CONTINUOUS
 62
     7
100
AcDbCircle
 10
13.689504
 20
522.629543
 30
0.0
 40
0.09375
210
0.0
220
0.0
230
1.0
  0
LINE
  5
180
100
AcDbEntity
  8
6
  6
CONTINUOUS
 62
     7
100
AcDbLine
 10
14.127547
 20
522.181169
 30
0.0
 11
13.062441
 21
521.124996
 31
0.0
  0
LINE
  5
181
100
AcDbEntity
  8
6
  6
CONTINUOUS
 62
     7
100
AcDbLine
 10
32.851583
 20
524.162228
 30
0.0
 11
31.074437
 21
524.162228
 31
0.0
  0
LINE
  5
182
100
AcDbEntity
  8
6
  6
CONTINUOUS
 62
     7
100
AcDbLine
 10
32.324437
 20
524.162228
 30
0.0
 11
30.976583
 21
524.162228
 31
0.0
  0
LINE
  5
183
100
AcDbEntity
  8
6
  6
CONTINUOUS
 62
     7
100
AcDbLine
 10
32.949437
 20
524.252228
 30
0.0
 11
32.949437
 21
524.162228
 31
0.0
  0
LINE
  5
184
100
AcDbEntity
  8
6
  6
CONTINUOUS
 62
     7
100
AcDbLine
 10
38.890835
 20
526.037228
 30
0.0
 11
30.765835
 21
526.037228
 31
0.0
  0
ARC
  5
185
100
AcDbEntity
  8
6
  6
CONTINUOUS
 62
     7
100
AcDbCircle
 10
31.449437
 20
524.912228
 30
0.0
 40
0.625
210
0.0
220
0.0
230
1.0
100
AcDbArc
 50
41.848158
 51
195.779156
  0
LINE
  5
186
100
AcDbEntity
  8
6
  6
CONTINUOUS
 62
     7
100
AcDbLine
 10
30.976583
 20
524.287228
 30
0.0
 11
30.976583
 21
524.162228
 31
0.0
  0
CIRCLE
  5
187
100
AcDbEntity
  8
6
  6
CONTINUOUS
 62
     7
100
AcDbCircle
 10
31.444862
 20
524.914264
 30
0.0
 40
0.09375
210
0.0
220
0.0
230
1.0
  0
LINE
  5
188
100
AcDbEntity
  8
6
  6
CONTINUOUS
 62
     7
100
AcDbLine
 10
36.430146
 20
526.037228
 30
0.0
 11
34.742626
 21
526.037228
 31
0.0
  0
INSERT
  5
18A
100
AcDbEntity
  8
20
  6
CONTINUOUS
 62
     7
100
AcDbBlockReference
  2
*M10
 10
31.449437
 20
524.912228
 30
0.0
 41
0.25
 42
0.25
 50
90.0
210
0.0
220
0.0
230
1.0
  0
LINE
  5
18B
100
AcDbEntity
  8
6
  6
DASHDOT
 62
     7
100
AcDbLine
 10
31.449437
 20
524.640228
 30
0.0
 11
31.449437
 21
524.060685
 31
0.0
  0
LINE
  5
18C
100
AcDbEntity
  8
6
  6
CONTINUOUS
 62
     7
100
AcDbLine
 10
39.108
 20
524.252228
 30
0.0
 11
39.108
 21
524.162228
 31
0.0
  0
LINE
  5
18D
100
AcDbEntity
  8
6
  6
DASHDOT
 62
     7
100
AcDbLine
 10
39.108
 20
524.162228
 30
0.0
 11
40.868587
 21
524.162228
 31
0.0
  0
LINE
  5
18E
100
AcDbEntity
  8
6
  6
DASHDOT
 62
     7
100
AcDbLine
 10
30.765835
 20
526.037228
 30
0.0
 11
30.765835
 21
524.023803
 31
0.0
  0
POLYLINE
  5
18F
100
AcDbEntity
  8
4
  6
DASHDOT
 62
     7
100
AcDb2dPolyline
 66
     1
 10
0.0
 20
0.0
 30
0.0
  0
VERTEX
  5
190
100
AcDbEntity
  8
4
  6
DASHDOT
 62
     7
100
AcDbVertex
100
AcDb2dVertex
 10
13.687469
 20
522.624969
 30
0.0
  0
VERTEX
  5
191
100
AcDbEntity
  8
4
  6
DASHDOT
 62
     7
100
AcDbVertex
100
AcDb2dVertex
 10
16.010386
 20
519.355906
 30
0.0
  0
VERTEX
  5
192
100
AcDbEntity
  8
4
  6
DASHDOT
 62
     7
100
AcDbVertex
100
AcDb2dVertex
 10
16.008923
 20
519.357968
 30
0.0
 42
0.501176
  0
VERTEX
  5
193
100
AcDbEntity
  8
4
  6
DASHDOT
 62
     7
100
AcDbVertex
100
AcDb2dVertex
 10
17.911058
 20
519.312627
 30
0.0
 42
0.214064
  0
VERTEX
  5
194
100
AcDbEntity
  8
4
  6
DASHDOT
 62
     7
100
AcDbVertex
100
AcDb2dVertex
 10
18.969742
 20
523.577806
 30
0.0
  0
SEQEND
  5
195
100
AcDbEntity
  8
4
  6
DASHDOT
 62
     7
  0
POLYLINE
  5
196
100
AcDbEntity
  8
4
  6
CONTINUOUS
 62
     7
100
AcDb2dPolyline
 66
     1
 10
0.0
 20
0.0
 30
0.0
  0
VERTEX
  5
197
100
AcDbEntity
  8
4
  6
CONTINUOUS
 62
     7
100
AcDbVertex
100
AcDb2dVertex
 10
18.452943
 20
518.889521
 30
0.0
 42
-0.501466
  0
VERTEX
  5
198
100
AcDbEntity
  8
4
  6
CONTINUOUS
 62
     7
100
AcDbVertex
100
AcDb2dVertex
 10
15.448499
 20
518.959744
 30
0.0
  0
VERTEX
  5
199
100
AcDbEntity
  8
4
  6
CONTINUOUS
 62
     7
100
AcDbVertex
100
AcDb2dVertex
 10
15.449961
 20
518.957681
 30
0.0
  0
VERTEX
  5
19A
100
AcDbEntity
  8
4
  6
CONTINUOUS
 62
     7
100
AcDbVertex
100
AcDb2dVertex
 10
13.127045
 20
522.226745
 30
0.0
 42
-0.916328
  0
VERTEX
  5
19B
100
AcDbEntity
  8
4
  6
CONTINUOUS
 62
     7
100
AcDbVertex
100
AcDb2dVertex
 10
14.170224
 20
523.114462
 30
0.0
  0
VERTEX
  5
19C
100
AcDbEntity
  8
4
  6
CONTINUOUS
 62
     7
100
AcDbVertex
100
AcDb2dVertex
 10
14.247894
 20
523.023193
 30
0.0
  0
VERTEX
  5
19D
100
AcDbEntity
  8
4
  6
CONTINUOUS
 62
     7
100
AcDbVertex
100
AcDb2dVertex
 10
16.569346
 20
519.756191
 30
0.0
 42
0.501333
  0
VERTEX
  5
19E
100
AcDbEntity
  8
4
  6
CONTINUOUS
 62
     7
100
AcDbVertex
100
AcDb2dVertex
 10
17.3704
 20
519.737298
 30
0.0
 42
0.219519
  0
VERTEX
  5
19F
100
AcDbEntity
  8
4
  6
CONTINUOUS
 62
     7
100
AcDbVertex
100
AcDb2dVertex
 10
18.274746
 20
523.552066
 30
0.0
  0
VERTEX
  5
1A0
100
AcDbEntity
  8
4
  6
CONTINUOUS
 62
     7
100
AcDbVertex
100
AcDb2dVertex
 10
18.468878
 20
523.556677
 30
0.0
  0
VERTEX
  5
1A1
100
AcDbEntity
  8
4
  6
CONTINUOUS
 62
     7
100
AcDbVertex
100
AcDb2dVertex
 10
19.470028
 20
523.598909
 30
0.0
  0
VERTEX
  5
1A2
100
AcDbEntity
  8
4
  6
CONTINUOUS
 62
     7
100
AcDbVertex
100
AcDb2dVertex
 10
19.66275
 20
523.604424
 30
0.0
 42
-0.209823
  0
VERTEX
  5
1A3
100
AcDbEntity
  8
4
  6
CONTINUOUS
 62
     7
100
AcDbVertex
100
AcDb2dVertex
 10
18.452944
 20
518.889521
 30
0.0
  0
SEQEND
  5
1A4
100
AcDbEntity
  8
4
  6
CONTINUOUS
 62
     7
  0
CIRCLE
  5
1A5
100
AcDbEntity
  8
4
  6
CONTINUOUS
 62
     7
100
AcDbCircle
 10
19.986567
 20
507.325996
 30
0.0
 40
0.125
210
0.0
220
0.0
230
1.0
  0
POLYLINE
  5
1A6
100
AcDbEntity
  8
4
  6
DASHDOT
 62
     7
100
AcDb2dPolyline
 66
     1
 10
0.0
 20
0.0
 30
0.0
  0
VERTEX
  5
1A7
100
AcDbEntity
  8
4
  6
DASHDOT
 62
     7
100
AcDbVertex
100
AcDb2dVertex
 10
16.725406
 20
511.092319
 30
0.0
  0
VERTEX
  5
1A8
100
AcDbEntity
  8
4
  6
DASHDOT
 62
     7
100
AcDbVertex
100
AcDb2dVertex
 10
19.048323
 20
507.823256
 30
0.0
  0
VERTEX
  5
1A9
100
AcDbEntity
  8
4
  6
DASHDOT
 62
     7
100
AcDbVertex
100
AcDb2dVertex
 10
19.04686
 20
507.825318
 30
0.0
 42
0.501176
  0
VERTEX
  5
1AA
100
AcDbEntity
  8
4
  6
DASHDOT
 62
     7
100
AcDbVertex
100
AcDb2dVertex
 10
20.948995
 20
507.779977
 30
0.0
 42
0.214064
  0
VERTEX
  5
1AB
100
AcDbEntity
  8
4
  6
DASHDOT
 62
     7
100
AcDbVertex
100
AcDb2dVertex
 10
22.007679
 20
512.045156
 30
0.0
  0
SEQEND
  5
1AC
100
AcDbEntity
  8
4
  6
DASHDOT
 62
     7
  0
POLYLINE
  5
1AD
100
AcDbEntity
  8
4
  6
CONTINUOUS
 62
     7
100
AcDb2dPolyline
 66
     1
 10
0.0
 20
0.0
 30
0.0
  0
VERTEX
  5
1AE
100
AcDbEntity
  8
4
  6
CONTINUOUS
 62
     7
100
AcDbVertex
100
AcDb2dVertex
 10
21.49088
 20
507.356871
 30
0.0
 42
-0.501466
  0
VERTEX
  5
1AF
100
AcDbEntity
  8
4
  6
CONTINUOUS
 62
     7
100
AcDbVertex
100
AcDb2dVertex
 10
18.486436
 20
507.427095
 30
0.0
  0
VERTEX
  5
1B0
100
AcDbEntity
  8
4
  6
CONTINUOUS
 62
     7
100
AcDbVertex
100
AcDb2dVertex
 10
18.487898
 20
507.425031
 30
0.0
  0
VERTEX
  5
1B1
100
AcDbEntity
  8
4
  6
CONTINUOUS
 62
     7
100
AcDbVertex
100
AcDb2dVertex
 10
16.164982
 20
510.694096
 30
0.0
 42
-0.916328
  0
VERTEX
  5
1B2
100
AcDbEntity
  8
4
  6
CONTINUOUS
 62
     7
100
AcDbVertex
100
AcDb2dVertex
 10
17.208161
 20
511.581812
 30
0.0
  0
VERTEX
  5
1B3
100
AcDbEntity
  8
4
  6
CONTINUOUS
 62
     7
100
AcDbVertex
100
AcDb2dVertex
 10
17.285831
 20
511.490543
 30
0.0
  0
VERTEX
  5
1B4
100
AcDbEntity
  8
4
  6
CONTINUOUS
 62
     7
100
AcDbVertex
100
AcDb2dVertex
 10
19.607283
 20
508.223542
 30
0.0
 42
0.501333
  0
VERTEX
  5
1B5
100
AcDbEntity
  8
4
  6
CONTINUOUS
 62
     7
100
AcDbVertex
100
AcDb2dVertex
 10
20.408338
 20
508.204649
 30
0.0
 42
0.219519
  0
VERTEX
  5
1B6
100
AcDbEntity
  8
4
  6
CONTINUOUS
 62
     7
100
AcDbVertex
100
AcDb2dVertex
 10
21.312683
 20
512.019416
 30
0.0
  0
VERTEX
  5
1B7
100
AcDbEntity
  8
4
  6
CONTINUOUS
 62
     7
100
AcDbVertex
100
AcDb2dVertex
 10
21.506815
 20
512.024028
 30
0.0
  0
VERTEX
  5
1B8
100
AcDbEntity
  8
4
  6
CONTINUOUS
 62
     7
100
AcDbVertex
100
AcDb2dVertex
 10
22.507965
 20
512.06626
 30
0.0
  0
VERTEX
  5
1B9
100
AcDbEntity
  8
4
  6
CONTINUOUS
 62
     7
100
AcDbVertex
100
AcDb2dVertex
 10
22.700687
 20
512.071775
 30
0.0
 42
-0.209823
  0
VERTEX
  5
1BA
100
AcDbEntity
  8
4
  6
CONTINUOUS
 62
     7
100
AcDbVertex
100
AcDb2dVertex
 10
21.490881
 20
507.356872
 30
0.0
  0
SEQEND
  5
1BB
100
AcDbEntity
  8
4
  6
CONTINUOUS
 62
     7
  0
CIRCLE
  5
1BC
100
AcDbEntity
  8
4
  6
CONTINUOUS
 62
     7
100
AcDbCircle
 10
16.725406
 20
511.092319
 30
0.0
 40
0.09375
210
0.0
220
0.0
230
1.0
  0
INSERT
  5
1BD
100
AcDbEntity
  8
20
  6
CONTINUOUS
 62
     7
100
AcDbBlockReference
  2
*M10
 10
16.725406
 20
511.092319
 30
0.0
 41
0.25
 42
0.25
210
0.0
220
0.0
230
1.0
  0
INSERT
  5
1BE
100
AcDbEntity
  8
20
  6
CONTINUOUS
 62
     7
100
AcDbBlockReference
  2
*M10
 10
19.986567
 20
507.325996
 30
0.0
 41
0.25
 42
0.25
210
0.0
220
0.0
230
1.0
  0
LINE
  5
1BF
100
AcDbEntity
  8
6
  6
DASHDOT
 62
     7
100
AcDbLine
 10
38.890835
 20
526.037228
 30
0.0
 11
38.890835
 21
524.023803
 31
0.0
  0
LINE
  5
1C0
100
AcDbEntity
  8
6
  6
CONTINUOUS
 62
     7
100
AcDbLine
 10
32.851555
 20
524.287228
 30
0.0
 11
30.976583
 21
524.287228
 31
0.0
  0
LINE
  5
1C1
100
AcDbEntity
  8
6
  6
CONTINUOUS
 62
     7
100
AcDbLine
 10
32.851583
 20
524.287228
 30
0.0
 11
32.851583
 21
524.162228
 31
0.0
  0
LINE
  5
1C2
100
AcDbEntity
  8
6
  6
CONTINUOUS
 62
     7
100
AcDbLine
 10
30.847988
 20
524.742272
 30
0.0
 11
30.976575
 21
524.287224
 31
0.0
  0
LINE
  5
1C3
100
AcDbEntity
  8
6
  6
CONTINUOUS
 62
     7
100
AcDbLine
 10
31.915008
 20
525.329201
 30
0.0
 11
32.851555
 21
524.287228
 31
0.0
  0
LINE
  5
1C4
100
AcDbEntity
  8
6
  6
DASHDOT
 62
     7
100
AcDbLine
 10
32.476587
 20
524.640228
 30
0.0
 11
32.476587
 21
524.069378
 31
0.0
  0
LINE
  5
1C5
100
AcDbEntity
  8
6
  6
CONTINUOUS
 62
     7
100
AcDbLine
 10
34.789083
 20
524.162228
 30
0.0
 11
33.011937
 21
524.162228
 31
0.0
  0
LINE
  5
1C6
100
AcDbEntity
  8
6
  6
CONTINUOUS
 62
     7
100
AcDbLine
 10
34.261937
 20
524.162228
 30
0.0
 11
32.914083
 21
524.162228
 31
0.0
  0
ARC
  5
1C7
100
AcDbEntity
  8
6
  6
CONTINUOUS
 62
     7
100
AcDbCircle
 10
33.386937
 20
524.912228
 30
0.0
 40
0.625
210
0.0
220
0.0
230
1.0
100
AcDbArc
 50
41.848158
 51
195.779156
  0
LINE
  5
1C8
100
AcDbEntity
  8
6
  6
CONTINUOUS
 62
     7
100
AcDbLine
 10
32.914083
 20
524.287228
 30
0.0
 11
32.914083
 21
524.162228
 31
0.0
  0
CIRCLE
  5
1C9
100
AcDbEntity
  8
6
  6
CONTINUOUS
 62
     7
100
AcDbCircle
 10
33.382362
 20
524.914264
 30
0.0
 40
0.09375
210
0.0
220
0.0
230
1.0
  0
INSERT
  5
1CA
100
AcDbEntity
  8
20
  6
CONTINUOUS
 62
     7
100
AcDbBlockReference
  2
*M10
 10
33.386937
 20
524.912228
 30
0.0
 41
0.25
 42
0.25
 50
90.0
210
0.0
220
0.0
230
1.0
  0
LINE
  5
1CB
100
AcDbEntity
  8
6
  6
DASHDOT
 62
     7
100
AcDbLine
 10
33.386937
 20
524.640228
 30
0.0
 11
33.386937
 21
524.060685
 31
0.0
  0
LINE
  5
1CC
100
AcDbEntity
  8
6
  6
CONTINUOUS
 62
     7
100
AcDbLine
 10
34.789055
 20
524.287228
 30
0.0
 11
32.914083
 21
524.287228
 31
0.0
  0
LINE
  5
1CD
100
AcDbEntity
  8
6
  6
CONTINUOUS
 62
     7
100
AcDbLine
 10
34.789083
 20
524.287228
 30
0.0
 11
34.789083
 21
524.162228
 31
0.0
  0
LINE
  5
1CE
100
AcDbEntity
  8
6
  6
CONTINUOUS
 62
     7
100
AcDbLine
 10
32.785488
 20
524.742272
 30
0.0
 11
32.914075
 21
524.287224
 31
0.0
  0
LINE
  5
1CF
100
AcDbEntity
  8
6
  6
CONTINUOUS
 62
     7
100
AcDbLine
 10
33.852508
 20
525.329201
 30
0.0
 11
34.789055
 21
524.287228
 31
0.0
  0
LINE
  5
1D0
100
AcDbEntity
  8
6
  6
DASHDOT
 62
     7
100
AcDbLine
 10
34.414087
 20
524.640228
 30
0.0
 11
34.414087
 21
524.069378
 31
0.0
  0
LINE
  5
1D1
100
AcDbEntity
  8
6
  6
CONTINUOUS
 62
     7
100
AcDbLine
 10
36.805087
 20
524.162228
 30
0.0
 11
38.582232
 21
524.162228
 31
0.0
  0
LINE
  5
1D2
100
AcDbEntity
  8
6
  6
CONTINUOUS
 62
     7
100
AcDbLine
 10
37.332232
 20
524.162228
 30
0.0
 11
38.680087
 21
524.162228
 31
0.0
  0
LINE
  5
1D3
100
AcDbEntity
  8
6
  6
CONTINUOUS
 62
     7
100
AcDbLine
 10
36.707232
 20
524.252228
 30
0.0
 11
36.707232
 21
524.162228
 31
0.0
  0
ARC
  5
1D4
100
AcDbEntity
  8
6
  6
CONTINUOUS
 62
     7
100
AcDbCircle
 10
38.207232
 20
524.912228
 30
0.0
 40
0.625
210
0.0
220
0.0
230
1.0
100
AcDbArc
 50
344.220844
 51
138.151842
  0
LINE
  5
1D5
100
AcDbEntity
  8
6
  6
CONTINUOUS
 62
     7
100
AcDbLine
 10
38.680087
 20
524.287228
 30
0.0
 11
38.680087
 21
524.162228
 31
0.0
  0
CIRCLE
  5
1D6
100
AcDbEntity
  8
6
  6
CONTINUOUS
 62
     7
100
AcDbCircle
 10
38.211807
 20
524.914264
 30
0.0
 40
0.09375
210
0.0
220
0.0
230
1.0
  0
INSERT
  5
1D7
100
AcDbEntity
  8
20
  6
CONTINUOUS
 62
     7
100
AcDbBlockReference
  2
*M10
 10
38.207232
 20
524.912228
 30
0.0
 41
0.25
 42
-0.25
 50
90.0
210
0.0
220
0.0
230
1.0
  0
LINE
  5
1D8
100
AcDbEntity
  8
6
  6
DASHDOT
 62
     7
100
AcDbLine
 10
38.207232
 20
524.640228
 30
0.0
 11
38.207232
 21
524.060685
 31
0.0
  0
LINE
  5
1D9
100
AcDbEntity
  8
6
  6
CONTINUOUS
 62
     7
100
AcDbLine
 10
36.805114
 20
524.287228
 30
0.0
 11
38.680087
 21
524.287228
 31
0.0
  0
LINE
  5
1DA
100
AcDbEntity
  8
6
  6
CONTINUOUS
 62
     7
100
AcDbLine
 10
36.805087
 20
524.287228
 30
0.0
 11
36.805087
 21
524.162228
 31
0.0
  0
LINE
  5
1DB
100
AcDbEntity
  8
6
  6
CONTINUOUS
 62
     7
100
AcDbLine
 10
38.808681
 20
524.742272
 30
0.0
 11
38.680094
 21
524.287224
 31
0.0
  0
LINE
  5
1DC
100
AcDbEntity
  8
6
  6
CONTINUOUS
 62
     7
100
AcDbLine
 10
37.741661
 20
525.329201
 30
0.0
 11
36.805114
 21
524.287228
 31
0.0
  0
LINE
  5
1DD
100
AcDbEntity
  8
6
  6
DASHDOT
 62
     7
100
AcDbLine
 10
37.180083
 20
524.640228
 30
0.0
 11
37.180083
 21
524.069378
 31
0.0
  0
LINE
  5
1DE
100
AcDbEntity
  8
6
  6
CONTINUOUS
 62
     7
100
AcDbLine
 10
34.867587
 20
524.162228
 30
0.0
 11
36.644732
 21
524.162228
 31
0.0
  0
LINE
  5
1DF
100
AcDbEntity
  8
6
  6
CONTINUOUS
 62
     7
100
AcDbLine
 10
35.394732
 20
524.162228
 30
0.0
 11
36.742587
 21
524.162228
 31
0.0
  0
ARC
  5
1E0
100
AcDbEntity
  8
6
  6
CONTINUOUS
 62
     7
100
AcDbCircle
 10
36.269732
 20
524.912228
 30
0.0
 40
0.625
210
0.0
220
0.0
230
1.0
100
AcDbArc
 50
344.220844
 51
138.151842
  0
LINE
  5
1E1
100
AcDbEntity
  8
6
  6
CONTINUOUS
 62
     7
100
AcDbLine
 10
36.742587
 20
524.287228
 30
0.0
 11
36.742587
 21
524.162228
 31
0.0
  0
CIRCLE
  5
1E2
100
AcDbEntity
  8
6
  6
CONTINUOUS
 62
     7
100
AcDbCircle
 10
36.274307
 20
524.914264
 30
0.0
 40
0.09375
210
0.0
220
0.0
230
1.0
  0
INSERT
  5
1E3
100
AcDbEntity
  8
20
  6
CONTINUOUS
 62
     7
100
AcDbBlockReference
  2
*M10
 10
36.269732
 20
524.912228
 30
0.0
 41
0.25
 42
-0.25
 50
90.0
210
0.0
220
0.0
230
1.0
  0
LINE
  5
1E4
100
AcDbEntity
  8
6
  6
DASHDOT
 62
     7
100
AcDbLine
 10
36.269732
 20
524.640228
 30
0.0
 11
36.269732
 21
524.060685
 31
0.0
  0
LINE
  5
1E5
100
AcDbEntity
  8
6
  6
CONTINUOUS
 62
     7
100
AcDbLine
 10
34.867614
 20
524.287228
 30
0.0
 11
36.742587
 21
524.287228
 31
0.0
  0
LINE
  5
1E6
100
AcDbEntity
  8
6
  6
CONTINUOUS
 62
     7
100
AcDbLine
 10
34.867587
 20
524.287228
 30
0.0
 11
34.867587
 21
524.162228
 31
0.0
  0
LINE
  5
1E7
100
AcDbEntity
  8
6
  6
CONTINUOUS
 62
     7
100
AcDbLine
 10
36.871181
 20
524.742272
 30
0.0
 11
36.742594
 21
524.287224
 31
0.0
  0
LINE
  5
1E8
100
AcDbEntity
  8
6
  6
CONTINUOUS
 62
     7
100
AcDbLine
 10
35.804161
 20
525.329201
 30
0.0
 11
34.867614
 21
524.287228
 31
0.0
  0
LINE
  5
1E9
100
AcDbEntity
  8
6
  6
DASHDOT
 62
     7
100
AcDbLine
 10
35.242583
 20
524.640228
 30
0.0
 11
35.242583
 21
524.069378
 31
0.0
  0
LINE
  5
1EA
100
AcDbEntity
  8
4
  6
CONTINUOUS
 62
     7
100
AcDbLine
 10
13.502004
 20
523.742169
 30
0.0
 11
15.382598
 21
525.354508
 31
0.0
  0
LINE
  5
1EB
100
AcDbEntity
  8
6
  6
CONTINUOUS
 62
     7
100
AcDbLine
 10
17.733193
 20
512.938992
 30
0.0
 11
15.956047
 21
512.938992
 31
0.0
  0
LINE
  5
1EC
100
AcDbEntity
  8
6
  6
CONTINUOUS
 62
     7
100
AcDbLine
 10
17.206047
 20
512.938992
 30
0.0
 11
15.858193
 21
512.938992
 31
0.0
  0
LINE
  5
1ED
100
AcDbEntity
  8
6
  6
CONTINUOUS
 62
     7
100
AcDbLine
 10
17.831047
 20
513.028992
 30
0.0
 11
17.831047
 21
512.938992
 31
0.0
  0
LINE
  5
1EE
100
AcDbEntity
  8
6
  6
CONTINUOUS
 62
     7
100
AcDbLine
 10
23.772445
 20
514.813992
 30
0.0
 11
15.647445
 21
514.813992
 31
0.0
  0
ARC
  5
1EF
100
AcDbEntity
  8
6
  6
CONTINUOUS
 62
     7
100
AcDbCircle
 10
16.331047
 20
513.688992
 30
0.0
 40
0.625
210
0.0
220
0.0
230
1.0
100
AcDbArc
 50
41.848158
 51
195.779156
  0
LINE
  5
1F0
100
AcDbEntity
  8
6
  6
CONTINUOUS
 62
     7
100
AcDbLine
 10
15.858193
 20
513.063992
 30
0.0
 11
15.858193
 21
512.938992
 31
0.0
  0
CIRCLE
  5
1F1
100
AcDbEntity
  8
6
  6
CONTINUOUS
 62
     7
100
AcDbCircle
 10
16.326472
 20
513.691028
 30
0.0
 40
0.09375
210
0.0
220
0.0
230
1.0
  0
LINE
  5
1F2
100
AcDbEntity
  8
6
  6
CONTINUOUS
 62
     7
100
AcDbLine
 10
21.311756
 20
514.813992
 30
0.0
 11
19.624236
 21
514.813992
 31
0.0
  0
INSERT
  5
1F3
100
AcDbEntity
  8
20
  6
CONTINUOUS
 62
     7
100
AcDbBlockReference
  2
*M10
 10
16.331047
 20
513.688992
 30
0.0
 41
0.25
 42
0.25
 50
90.0
210
0.0
220
0.0
230
1.0
  0
LINE
  5
1F4
100
AcDbEntity
  8
6
  6
DASHDOT
 62
     7
100
AcDbLine
 10
16.331047
 20
513.416992
 30
0.0
 11
16.331047
 21
512.837449
 31
0.0
  0
LINE
  5
1F5
100
AcDbEntity
  8
6
  6
DASHDOT
 62
     7
100
AcDbLine
 10
15.647445
 20
514.813992
 30
0.0
 11
15.647445
 21
512.800567
 31
0.0
  0
LINE
  5
1F6
100
AcDbEntity
  8
6
  6
DASHDOT
 62
     7
100
AcDbLine
 10
23.772445
 20
514.813992
 30
0.0
 11
23.772445
 21
512.800567
 31
0.0
  0
LINE
  5
1F7
100
AcDbEntity
  8
6
  6
CONTINUOUS
 62
     7
100
AcDbLine
 10
17.733165
 20
513.063992
 30
0.0
 11
15.858193
 21
513.063992
 31
0.0
  0
LINE
  5
1F8
100
AcDbEntity
  8
6
  6
CONTINUOUS
 62
     7
100
AcDbLine
 10
17.733193
 20
513.063992
 30
0.0
 11
17.733193
 21
512.938992
 31
0.0
  0
LINE
  5
1F9
100
AcDbEntity
  8
6
  6
CONTINUOUS
 62
     7
100
AcDbLine
 10
15.729598
 20
513.519035
 30
0.0
 11
15.858185
 21
513.063988
 31
0.0
  0
LINE
  5
1FA
100
AcDbEntity
  8
6
  6
CONTINUOUS
 62
     7
100
AcDbLine
 10
16.796618
 20
514.105965
 30
0.0
 11
17.733165
 21
513.063992
 31
0.0
  0
LINE
  5
1FB
100
AcDbEntity
  8
6
  6
DASHDOT
 62
     7
100
AcDbLine
 10
17.358197
 20
513.416992
 30
0.0
 11
17.358197
 21
512.846142
 31
0.0
  0
LINE
  5
1FC
100
AcDbEntity
  8
6
  6
CONTINUOUS
 62
     7
100
AcDbLine
 10
19.670693
 20
512.938992
 30
0.0
 11
17.893547
 21
512.938992
 31
0.0
  0
LINE
  5
1FD
100
AcDbEntity
  8
6
  6
CONTINUOUS
 62
     7
100
AcDbLine
 10
19.143547
 20
512.938992
 30
0.0
 11
17.795693
 21
512.938992
 31
0.0
  0
ARC
  5
1FE
100
AcDbEntity
  8
6
  6
CONTINUOUS
 62
     7
100
AcDbCircle
 10
18.268547
 20
513.688992
 30
0.0
 40
0.625
210
0.0
220
0.0
230
1.0
100
AcDbArc
 50
41.848158
 51
195.779156
  0
LINE
  5
1FF
100
AcDbEntity
  8
6
  6
CONTINUOUS
 62
     7
100
AcDbLine
 10
17.795693
 20
513.063992
 30
0.0
 11
17.795693
 21
512.938992
 31
0.0
  0
CIRCLE
  5
200
100
AcDbEntity
  8
6
  6
CONTINUOUS
 62
     7
100
AcDbCircle
 10
18.263972
 20
513.691028
 30
0.0
 40
0.09375
210
0.0
220
0.0
230
1.0
  0
INSERT
  5
201
100
AcDbEntity
  8
20
  6
CONTINUOUS
 62
     7
100
AcDbBlockReference
  2
*M10
 10
18.268547
 20
513.688992
 30
0.0
 41
0.25
 42
0.25
 50
90.0
210
0.0
220
0.0
230
1.0
  0
LINE
  5
202
100
AcDbEntity
  8
6
  6
DASHDOT
 62
     7
100
AcDbLine
 10
18.268547
 20
513.416992
 30
0.0
 11
18.268547
 21
512.837449
 31
0.0
  0
LINE
  5
203
100
AcDbEntity
  8
6
  6
CONTINUOUS
 62
     7
100
AcDbLine
 10
19.670665
 20
513.063992
 30
0.0
 11
17.795693
 21
513.063992
 31
0.0
  0
LINE
  5
204
100
AcDbEntity
  8
6
  6
CONTINUOUS
 62
     7
100
AcDbLine
 10
19.670693
 20
513.063992
 30
0.0
 11
19.670693
 21
512.938992
 31
0.0
  0
LINE
  5
205
100
AcDbEntity
  8
6
  6
CONTINUOUS
 62
     7
100
AcDbLine
 10
17.667098
 20
513.519035
 30
0.0
 11
17.795685
 21
513.063988
 31
0.0
  0
LINE
  5
206
100
AcDbEntity
  8
6
  6
CONTINUOUS
 62
     7
100
AcDbLine
 10
18.734118
 20
514.105965
 30
0.0
 11
19.670665
 21
513.063992
 31
0.0
  0
LINE
  5
207
100
AcDbEntity
  8
6
  6
DASHDOT
 62
     7
100
AcDbLine
 10
19.295697
 20
513.416992
 30
0.0
 11
19.295697
 21
512.846142
 31
0.0
  0
LINE
  5
208
100
AcDbEntity
  8
6
  6
CONTINUOUS
 62
     7
100
AcDbLine
 10
21.686697
 20
512.938992
 30
0.0
 11
23.463843
 21
512.938992
 31
0.0
  0
LINE
  5
209
100
AcDbEntity
  8
6
  6
CONTINUOUS
 62
     7
100
AcDbLine
 10
22.213843
 20
512.938992
 30
0.0
 11
23.561697
 21
512.938992
 31
0.0
  0
LINE
  5
20A
100
AcDbEntity
  8
6
  6
CONTINUOUS
 62
     7
100
AcDbLine
 10
21.588843
 20
513.028992
 30
0.0
 11
21.588843
 21
512.938992
 31
0.0
  0
ARC
  5
20B
100
AcDbEntity
  8
6
  6
CONTINUOUS
 62
     7
100
AcDbCircle
 10
23.088843
 20
513.688992
 30
0.0
 40
0.625
210
0.0
220
0.0
230
1.0
100
AcDbArc
 50
344.220844
 51
138.151842
  0
LINE
  5
20C
100
AcDbEntity
  8
6
  6
CONTINUOUS
 62
     7
100
AcDbLine
 10
23.561697
 20
513.063992
 30
0.0
 11
23.561697
 21
512.938992
 31
0.0
  0
CIRCLE
  5
20D
100
AcDbEntity
  8
6
  6
CONTINUOUS
 62
     7
100
AcDbCircle
 10
23.093417
 20
513.691028
 30
0.0
 40
0.09375
210
0.0
220
0.0
230
1.0
  0
INSERT
  5
20E
100
AcDbEntity
  8
20
  6
CONTINUOUS
 62
     7
100
AcDbBlockReference
  2
*M10
 10
23.088843
 20
513.688992
 30
0.0
 41
0.25
 42
-0.25
 50
90.0
210
0.0
220
0.0
230
1.0
  0
LINE
  5
20F
100
AcDbEntity
  8
6
  6
DASHDOT
 62
     7
100
AcDbLine
 10
23.088843
 20
513.416992
 30
0.0
 11
23.088843
 21
512.837449
 31
0.0
  0
LINE
  5
210
100
AcDbEntity
  8
6
  6
CONTINUOUS
 62
     7
100
AcDbLine
 10
21.686724
 20
513.063992
 30
0.0
 11
23.561697
 21
513.063992
 31
0.0
  0
LINE
  5
211
100
AcDbEntity
  8
6
  6
CONTINUOUS
 62
     7
100
AcDbLine
 10
21.686697
 20
513.063992
 30
0.0
 11
21.686697
 21
512.938992
 31
0.0
  0
LINE
  5
212
100
AcDbEntity
  8
6
  6
CONTINUOUS
 62
     7
100
AcDbLine
 10
23.690291
 20
513.519035
 30
0.0
 11
23.561705
 21
513.063988
 31
0.0
  0
LINE
  5
213
100
AcDbEntity
  8
6
  6
CONTINUOUS
 62
     7
100
AcDbLine
 10
22.623272
 20
514.105965
 30
0.0
 11
21.686724
 21
513.063992
 31
0.0
  0
LINE
  5
214
100
AcDbEntity
  8
6
  6
DASHDOT
 62
     7
100
AcDbLine
 10
22.061693
 20
513.416992
 30
0.0
 11
22.061693
 21
512.846142
 31
0.0
  0
LINE
  5
215
100
AcDbEntity
  8
6
  6
CONTINUOUS
 62
     7
100
AcDbLine
 10
19.749197
 20
512.938992
 30
0.0
 11
21.526343
 21
512.938992
 31
0.0
  0
LINE
  5
216
100
AcDbEntity
  8
6
  6
CONTINUOUS
 62
     7
100
AcDbLine
 10
20.276343
 20
512.938992
 30
0.0
 11
21.624197
 21
512.938992
 31
0.0
  0
ARC
  5
217
100
AcDbEntity
  8
6
  6
CONTINUOUS
 62
     7
100
AcDbCircle
 10
21.151343
 20
513.688992
 30
0.0
 40
0.625
210
0.0
220
0.0
230
1.0
100
AcDbArc
 50
344.220844
 51
138.151842
  0
LINE
  5
218
100
AcDbEntity
  8
6
  6
CONTINUOUS
 62
     7
100
AcDbLine
 10
21.624197
 20
513.063992
 30
0.0
 11
21.624197
 21
512.938992
 31
0.0
  0
CIRCLE
  5
219
100
AcDbEntity
  8
6
  6
CONTINUOUS
 62
     7
100
AcDbCircle
 10
21.155917
 20
513.691028
 30
0.0
 40
0.09375
210
0.0
220
0.0
230
1.0
  0
INSERT
  5
21A
100
AcDbEntity
  8
20
  6
CONTINUOUS
 62
     7
100
AcDbBlockReference
  2
*M10
 10
21.151343
 20
513.688992
 30
0.0
 41
0.25
 42
-0.25
 50
90.0
210
0.0
220
0.0
230
1.0
  0
LINE
  5
21B
100
AcDbEntity
  8
6
  6
DASHDOT
 62
     7
100
AcDbLine
 10
21.151343
 20
513.416992
 30
0.0
 11
21.151343
 21
512.837449
 31
0.0
  0
LINE
  5
21C
100
AcDbEntity
  8
6
  6
CONTINUOUS
 62
     7
100
AcDbLine
 10
19.749224
 20
513.063992
 30
0.0
 11
21.624197
 21
513.063992
 31
0.0
  0
LINE
  5
21D
100
AcDbEntity
  8
6
  6
CONTINUOUS
 62
     7
100
AcDbLine
 10
19.749197
 20
513.063992
 30
0.0
 11
19.749197
 21
512.938992
 31
0.0
  0
LINE
  5
21E
100
AcDbEntity
  8
6
  6
CONTINUOUS
 62
     7
100
AcDbLine
 10
21.752791
 20
513.519035
 30
0.0
 11
21.624205
 21
513.063988
 31
0.0
  0
LINE
  5
21F
100
AcDbEntity
  8
6
  6
CONTINUOUS
 62
     7
100
AcDbLine
 10
20.685772
 20
514.105965
 30
0.0
 11
19.749224
 21
513.063992
 31
0.0
  0
LINE
  5
220
100
AcDbEntity
  8
6
  6
DASHDOT
 62
     7
100
AcDbLine
 10
20.124193
 20
513.416992
 30
0.0
 11
20.124193
 21
512.846142
 31
0.0
  0
LINE
  5
221
100
AcDbEntity
  8
4
  6
CONTINUOUS
 62
     7
100
AcDbLine
 10
15.525752
 20
512.509264
 30
0.0
 11
15.525752
 21
506.509264
 31
0.0
  0
LINE
  5
222
100
AcDbEntity
  8
4
  6
CONTINUOUS
 62
     7
100
AcDbLine
 10
15.525752
 20
512.509264
 30
0.0
 11
15.725752
 21
512.509264
 31
0.0
  0
LINE
  5
223
100
AcDbEntity
  8
4
  6
CONTINUOUS
 62
     7
100
AcDbLine
 10
15.525752
 20
511.509264
 30
0.0
 11
15.725752
 21
511.509264
 31
0.0
  0
LINE
  5
224
100
AcDbEntity
  8
4
  6
CONTINUOUS
 62
     7
100
AcDbLine
 10
15.525752
 20
510.509264
 30
0.0
 11
15.725752
 21
510.509264
 31
0.0
  0
LINE
  5
225
100
AcDbEntity
  8
4
  6
CONTINUOUS
 62
     7
100
AcDbLine
 10
15.525752
 20
509.509264
 30
0.0
 11
15.725752
 21
509.509264
 31
0.0
  0
LINE
  5
226
100
AcDbEntity
  8
4
  6
CONTINUOUS
 62
     7
100
AcDbLine
 10
15.525752
 20
508.509264
 30
0.0
 11
15.725752
 21
508.509264
 31
0.0
  0
LINE
  5
227
100
AcDbEntity
  8
4
  6
CONTINUOUS
 62
     7
100
AcDbLine
 10
15.525752
 20
507.509264
 30
0.0
 11
15.725752
 21
507.509264
 31
0.0
  0
LINE
  5
228
100
AcDbEntity
  8
4
  6
CONTINUOUS
 62
     7
100
AcDbLine
 10
15.525752
 20
506.509264
 30
0.0
 11
15.725752
 21
506.509264
 31
0.0
  0
DIMENSION
  5
233
100
AcDbEntity
  8
4
  6
CONTINUOUS
 62
     7
100
AcDbDimension
  2
*D18
 10
16.725406
 20
511.092319
 30
0.0
 11
20.087835
 21
508.911913
 31
0.0
 70
   164
  3
MSADIM
100
AcDbRadialDimension
 15
21.476745
 25
508.595303
 35
0.0
 40
0.0
  0
DIMENSION
  5
23E
100
AcDbEntity
  8
4
  6
CONTINUOUS
 62
     7
100
AcDbDimension
  2
*D19
 10
20.014862
 20
508.513157
 30
0.0
 11
20.672795
 21
508.322661
 31
0.0
 70
   164
  3
MSADIM
100
AcDbRadialDimension
 15
19.633736
 25
508.18952
 35
0.0
 40
0.0
  0
DIMENSION
  5
249
100
AcDbEntity
  8
4
  6
CONTINUOUS
 62
     7
100
AcDbDimension
  2
*D20
 10
21.151343
 20
513.688992
 30
0.0
 11
22.490972
 21
514.500315
 31
0.0
 70
   164
  3
MSADIM
100
AcDbRadialDimension
 15
21.444573
 25
514.240933
 35
0.0
 40
0.0
  0
DIMENSION
  5
258
100
AcDbEntity
  8
4
  6
CONTINUOUS
 62
     7
100
AcDbDimension
  2
*D21
 10
16.725406
 20
511.092319
 30
0.0
 11
19.407764
 21
511.017319
 31
0.0
 70
   160
  3
MSADIM
100
AcDbAlignedDimension
 13
21.312685
 23
512.019417
 33
0.0
 14
16.725406
 24
511.092319
 34
0.0
100
AcDbRotatedDimension
  0
DIMENSION
  5
267
100
AcDbEntity
  8
4
  6
CONTINUOUS
 62
     7
100
AcDbDimension
  2
*D22
 10
21.686697
 20
512.938992
 30
0.0
 11
22.723961
 21
512.863992
 31
0.0
 70
   160
  3
MSADIM
100
AcDbAlignedDimension
 13
23.561697
 23
513.001492
 33
0.0
 14
21.686697
 24
512.938992
 34
0.0
100
AcDbRotatedDimension
  0
DIMENSION
  5
272
100
AcDbEntity
  8
4
  6
CONTINUOUS
 62
     7
100
AcDbDimension
  2
*D23
 10
20.014862
 20
508.513157
 30
0.0
 11
22.453075
 21
506.935067
 31
0.0
 70
   164
  3
MSADIM
100
AcDbRadialDimension
 15
21.369011
 25
507.216274
 35
0.0
 40
0.0
  0
DIMENSION
  5
27D
100
AcDbEntity
  8
4
  6
CONTINUOUS
 62
     7
100
AcDbDimension
  2
*D24
 10
16.725406
 20
511.092319
 30
0.0
 11
23.555669
 21
508.626791
 31
0.0
 70
   164
  3
MSADIM
100
AcDbRadialDimension
 15
22.344968
 25
508.837581
 35
0.0
 40
0.0
  0
DIMENSION
  5
28A
100
AcDbEntity
  8
4
  6
CONTINUOUS
 62
     7
100
AcDbDimension
  2
*D25
 10
14.390723
 20
511.012357
 30
0.0
 11
17.435577
 21
508.791831
 31
0.0
 70
   165
  3
MSADIM
100
AcDb3PointAngularDimension
 13
16.725406
 23
508.986913
 33
0.0
 14
18.218043
 24
508.991717
 34
0.0
 15
16.725406
 25
511.092319
 35
0.0
 50
-270.0
  0
LINE
  5
28B
100
AcDbEntity
  8
4
  6
CONTINUOUS
 62
     7
100
AcDbLine
 10
16.725406
 20
510.735665
 30
0.0
 11
16.725406
 21
508.568736
 31
0.0
  0
DIMENSION
  5
296
100
AcDbEntity
  8
4
  6
CONTINUOUS
 62
     7
100
AcDbDimension
  2
*D26
 10
16.725406
 20
511.092319
 30
0.0
 11
15.843106
 21
512.029252
 31
0.0
 70
   164
  3
MSADIM
100
AcDbRadialDimension
 15
16.567662
 25
511.761478
 35
0.0
 40
0.0
  0
TEXT
  5
298
100
AcDbEntity
  8
61
  6
CONTINUOUS
 62
     7
100
AcDbText
 10
15.746909
 20
506.840012
 30
0.0
 40
0.15
  1
scale in inches
  7
ROMANS
 72
     4
 11
16.846906
 21
506.915012
 31
0.0
210
0.0
220
0.0
230
1.0
100
AcDbText
  0
ENDSEC
  0
SECTION
  2
OBJECTS
  0
DICTIONARY
  5
19
100
AcDbDictionary
  3
ACAD_GROUP
350
1A
  3
ACAD_MLINESTYLE
350
1B
  0
DICTIONARY
  5
1A
102
{ACAD_REACTORS
330
19
102
}
100
AcDbDictionary
  0
DICTIONARY
  5
1B
102
{ACAD_REACTORS
330
19
102
}
100
AcDbDictionary
  3
STANDARD
350
1C
  0
MLINESTYLE
  5
1C
102
{ACAD_REACTORS
330
1B
102
}
100
AcDbMlineStyle
  2
STANDARD
 70
     0
  3

 62
     0
 51
90.0
 52
90.0
 71
     2
 49
0.5
 62
   256
  6
BYLAYER
 49
-0.5
 62
   256
  6
BYLAYER
  0
ENDSEC
  0
EOF
